百度云资源论坛

 找回密码
 立即注册

疯狗摩根 Mad.Dog.Morgan.1976.720p.BluRay.x264-PFa 6.96GB

[复制链接]
百度云资源 发表于 2021-3-24 23:16:30 | 显示全部楼层 |阅读模式
-->
帖子完整标题:疯狗摩根 Mad.Dog.Morgan.1976.720p.BluRay.x264-PFa 6.96GB




◎译  名 疯狗摩根
◎片  名 Mad Dog Morgan
◎年  代 1976
◎产  地 澳大利亚
◎类  别 剧情 / 动作 / 历史 / 犯罪 / 西部
◎语  言 英语
◎上映日期 1976-07-09
◎IMDb评分  6.1/10 from 1355 users
◎IMDb链接  https://www.imdb.com/title/tt0074836/
◎豆瓣评分 /10 from 0 users
◎豆瓣链接 https://movie.douban.com/subject/3059192/
◎片  长 USA: 102 分钟
◎导  演 菲利普·莫拉 Philippe Mora
◎编  剧 菲利普·莫拉 Philippe Mora
◎主  演 迈克尔·佩特 Michael Pate
       Robin Ramsay
       杰克·汤普森 Jack Thompson
       Christopher Pate
       弗兰克·思林 Frank Thring
       休·基斯-拜恩 Hugh Keays-Byrne
       格里·达根 Gerry Duggan
       Alan Hardy
       罗伯特·麦克达拉 Robert McDarra
       丹尼斯·米勒 Dennis Miller
       杰瑞米·丘利 Jeremy Kewley
       约翰·哈格里夫斯 John Hargreaves
       John Gaden
       大卫·古皮利 David Gulpilil
       诺曼·卡耶 Norman Kaye
       比尔·亨特 Bill Hunter
       丹尼斯·霍珀 Dennis Hopper
       布鲁斯·斯宾斯 Bruce Spence
       Harold Baigent
       Graeme Blundell
       Peter Cummins
       Liddy Clark
       John Derum
       Judith Fisher
       Wallas Eaton
       Chuck Faulkner
       雷格·埃文斯 Reg Evans
       Ken Grant
       John Cousins

◎标  签 澳大利亚 | 1976 | 1970s | 西部 | 澳大利亚电影 | 无字幕 | 已收录 | PhilippeMora

◎简  介

  暂无相关剧情介绍
Video
ID                                       : 1
Format                                   : AVC
Format/Info                              : Advanced Video Codec
Format profile                           : [email protected]
Format settings                          : CABAC / 8 Ref Frames
Format settings, CABAC                   : Yes
Format settings, Reference frames        : 8 frames
Codec ID                                 : V_MPEG4/ISO/AVC
Duration                                 : 1 h 42 min
Bit rate                                 : 9 031 kb/s
Width                                    : 1 280 pixels
Height                                   : 532 pixels
Display aspect ratio                     : 2.40:1
Frame rate mode                          : Constant
Frame rate                               : 23.976 (24000/1001/189150) FPS
Color space                              : YUV
Chroma subsampling                       : 4:2:0
Bit depth                                : 8 bits
Scan type                                : Progressive
Bits/(Pixel*Frame)                       : 0.553
Stream size                              : 6.50 GiB (93%)
Writing library                          : x264 core 157 r2969 d4099dd
Encoding settings                        : cabac=1 / ref=8 / deblock=1:-3:-3 / analyse=0x3:0x133 / me=umh / subme=9 / psy=1 / psy_rd=1.00:0.00 / mixed_ref=1 / me_range=16 / chroma_me=1 / trellis=2 / 8x8dct=1 / cqm=0 / deadzone=21,11 / fast_pskip=1 / chroma_qp_offset=-2 / threads=12 / lookahead_threads=1 / sliced_threads=0 / nr=0 / decimate=1 / interlaced=0 / bluray_compat=0 / constrained_intra=0 / bframes=3 / b_pyramid=2 / b_adapt=2 / b_bias=0 / direct=3 / weightb=1 / open_gop=0 / weightp=2 / keyint=250 / keyint_min=23 / scenecut=40 / intra_refresh=0 / rc_lookahead=60 / rc=crf / mbtree=1 / crf=18.0 / qcomp=0.60 / qpmin=0 / qpmax=69 / qpstep=4 / ip_ratio=1.40 / aq=3:0.70
Language                                 : English
Default                                  : Yes
Forced                                   : No

Audio
ID                                       : 2
Format                                   : AC-3
Format/Info                              : Audio Coding 3
Commercial name                          : Dolby Digital
Codec ID                                 : A_AC3
Duration                                 : 1 h 42 min
Bit rate mode                            : Constant
Bit rate                                 : 640 kb/s
Channel(s)                               : 2 channels
Channel layout                           : L R
Sampling rate                            : 48.0 kHz
Frame rate                               : 31.250 FPS (1536 SPF)
Compression mode                         : Lossy
Stream size                              : 471 MiB (7%)
Language                                 : English
Service kind                             : Complete Main
Default                                  : Yes
Forced                                   : No

Text
ID                                       : 3
Format                                   : PGS
Muxing mode                              : zlib
Codec ID                                 : S_HDMV/PGS
Codec ID/Info                            : Picture based subtitle format used on BDs/HD-DVDs
Duration                                 : 1 h 42 min
Bit rate                                 : 25.2 kb/s
Count of elements                        : 2023
Stream size                              : 18.6 MiB (0%)
Language                                 : English
Default                                  : Yes
Forced                                   : No




                                                                                                                                                                                                        
                                                                                                                                                                                                                                                                                                                                                                                                                                                                                                                                                                                                                                                                                                                                                                                                                                                        
49c7fe402ad8c2088a8bb5ecd27e8216.zip (35.49 KB, 下载次数: 0)

回复

使用道具 举报

小黑屋|百度云资源分享吧 ( 京ICP备15014721号-2 )

本网站所有资源来自网络,如无意中侵犯了您的权益,请发邮件至 [email protected],立即清除相关链接

GMT+8, 2021-4-19 02:35 , Processed in 0.095761 second(s), 23 queries .

Powered by Discuz! X3.2

© 2001-2013 Comsenz Inc.

快速回复 返回顶部 返回列表