百度云资源论坛

 找回密码
 立即注册

扎帕/弗兰克·扎帕 Zappa.2020.720p.BluRay.x264-DEV0 4.50GB

[复制链接]
百度云资源 发表于 2021-3-27 11:29:57 | 显示全部楼层 |阅读模式
-->
帖子完整标题:扎帕/弗兰克·扎帕 Zappa.2020.720p.BluRay.x264-DEV0 4.50GB



[/url]

◎译  名 扎帕/弗兰克·扎帕
◎片  名 Zappa
◎年  代 2020
◎产  地 美国
◎类  别 纪录片
◎语  言 英语
◎上映日期 2020-10-10(卡姆登国际电影节) / 2020-11-27(美国)
◎IMDb评分  7.6/10 from 1250 users
◎IMDb链接  
◎豆瓣评分 /10 from 0 users
◎豆瓣链接 
◎片  长 129分钟
◎导  演 亚历克斯·温特 Alex Winter
◎编  剧 亚历克斯·温特 Alex Winter
◎主  演 弗兰克·扎帕 Frank Zappa

◎标  签 纪录片 | 音乐 | 美国 | 传记 | 摇滚 | FrankZappa | 2020 | 2020s

◎简  介

  An in-depth look into the life and work of musician Frank Zappa.

◎获奖情况

  第68届美国音效剪辑协会奖 ?(2021)
  金卷轴奖最佳纪录片音效剪辑(提名)
Video
ID                                       : 1
Format                                   : AVC
Format/Info                              : Advanced Video Codec
Format profile                           :
Format settings                          : CABAC / 9 Ref Frames
Format settings, CABAC                   : Yes
Format settings, Reference frames        : 9 frames
Codec ID                                 : V_MPEG4/ISO/AVC
Duration                                 : 2 h 7 min
Bit rate                                 : 4 368 kb/s
Width                                    : 1 280 pixels
Height                                   : 720 pixels
Display aspect ratio                     : 16:9
Frame rate mode                          : Constant
Frame rate                               : 23.976 (24000/1001/189150) FPS
Color space                              : YUV
Chroma subsampling                       : 4:2:0
Bit depth                                : 8 bits
Scan type                                : Progressive
Bits/(Pixel*Frame)                       : 0.198
Stream size                              : 3.90 GiB (87%)
Writing library                          : x264 core 161 r3048 b86ae3c
Encoding settings                        : cabac=1 / ref=9 / deblock=1:-3:-3 / analyse=0x3:0x133 / me=umh / subme=10 / psy=1 / psy_rd=1.00:0.15 / mixed_ref=1 / me_range=24 / chroma_me=1 / trellis=2 / 8x8dct=1 / cqm=0 / deadzone=21,11 / fast_pskip=1 / chroma_qp_offset=-3 / threads=18 / lookahead_threads=3 / sliced_threads=0 / nr=0 / decimate=1 / interlaced=0 / bluray_compat=0 / constrained_intra=0 / bframes=8 / b_pyramid=2 / b_adapt=2 / b_bias=0 / direct=3 / weightb=1 / open_gop=0 / weightp=2 / keyint=250 / keyint_min=23 / scenecut=40 / intra_refresh=0 / rc_lookahead=60 / rc=crf / mbtree=1 / crf=18.0 / qcomp=0.60 / qpmin=0 / qpmax=69 / qpstep=4 / ip_ratio=1.40 / aq=3:0.60
Language                                 : English
Default                                  : Yes
Forced                                   : No
Color range                              : Limited
Matrix coefficients                      : BT.709

Audio
ID                                       : 2
Format                                   : AC-3
Format/Info                              : Audio Coding 3
Commercial name                          : Dolby Digital
Codec ID                                 : A_AC3
Duration                                 : 2 h 7 min
Bit rate mode                            : Constant
Bit rate                                 : 640 kb/s
Channel(s)                               : 6 channels
Channel layout                           : L R C LFE Ls Rs
Sampling rate                            : 48.0 kHz
Frame rate                               : 31.250 FPS (1536 SPF)
Compression mode                         : Lossy
Stream size                              : 586 MiB (13%)
Language                                 : English
Service kind                             : Complete Main
Default                                  : Yes
Forced                                   : No

Text
ID                                       : 3
Format                                   : PGS
Muxing mode                              : zlib
Codec ID                                 : S_HDMV/PGS
Codec ID/Info                            : Picture based subtitle format used on BDs/HD-DVDs
Duration                                 : 2 h 7 min
Bit rate                                 : 27.3 kb/s
Count of elements                        : 4410
Stream size                              : 24.9 MiB (1%)
Title                                    : English SDH
Language                                 : English
Default                                  : No
Forced                                   : No

Menu
00:00:00.000                             : en:00:00:00.000
00:09:03.543                             : en:00:09:03.543
00:16:36.996                             : en:00:16:36.996
00:25:47.546                             : en:00:25:47.546
00:33:01.980                             : en:00:33:01.980
00:40:42.440                             : en:00:40:42.440
00:49:12.950                             : en:00:49:12.950
00:59:25.562                             : en:00:59:25.562
01:09:17.779                             : en:01:09:17.779
01:17:48.664                             : en:01:17:48.664
01:26:15.796                             : en:01:26:15.796
01:36:05.760                             : en:01:36:05.760
01:44:19.879                             : en:01:44:19.879
01:53:30.804                             : en:01:53:30.804
02:02:23.336                             : en:02:02:23.336




                                                                                                                                                                                                        
                                                                                                                                                                                                                                                                                                                                                                                                                                                                                                                                                                                                                                                                                                                                                                                                                                                        
62c31bfe20a2e28490e2cfbe81909859.zip (45.67 KB, 下载次数: 0)

回复

使用道具 举报

小黑屋|百度云资源分享吧 ( 京ICP备15014721号-2 )

本网站所有资源来自网络,如无意中侵犯了您的权益,请发邮件至 [email protected],立即清除相关链接

GMT+8, 2021-4-19 02:07 , Processed in 0.104282 second(s), 23 queries .

Powered by Discuz! X3.2

© 2001-2013 Comsenz Inc.

快速回复 返回顶部 返回列表