百度云资源论坛

 找回密码
 立即注册

牙医奇遇记 Dentist.on.the.Job.1961.720p.BluRay.x264-ORBS 4.54GB

[复制链接]
百度云资源 发表于 2021-3-27 11:29:57 | 显示全部楼层 |阅读模式
-->
帖子完整标题:牙医奇遇记 Dentist.on.the.Job.1961.720p.BluRay.x264-ORBS 4.54GB



[/url]

◎译  名 牙医奇遇记
◎片  名 Dentist On The Job
◎年  代 1961
◎产  地 英国
◎类  别 喜剧
◎语  言 英语
◎上映日期 
◎IMDb评分  5.3/10 from 238 users
◎IMDb链接  
◎豆瓣评分 /10 from 0 users
◎豆瓣链接 
◎片  长 88 分钟
◎导  演 C·M·彭宁顿-理查兹 C.M. Pennington-Richards
◎编  剧 Bob Monkhouse
◎主  演 罗尼·斯蒂芬斯 Ronnie Stevens
       Bettina Le Beau
       Carole Lorimer
       Bob Monkhouse
       Keith Fordyce
       夏洛特·米切尔 Charlotte Mitchell
       Arthur Mullard
       Michael Miles
       格雷厄姆·斯塔克 Graham Stark
       Jeremy Hawk
       David Horne
       雪莉·伊顿 Shirley Eaton
       理查德·沃迪斯 Richard Wattis
       Eric Barker
       雷金纳德·贝克威思 Reginald Beckwith
       Charles Hawtrey
       Court Benson
       Richard Caldicot
       Kenneth Connor
       西里尔·张伯伦 Cyril Chamberlain
       Philip Gilbert
       帕特里克·霍尔特 Patrick Holt
       David Glover
       Julian Holloway

◎标  签 英国

◎简  介

  Two newly graduated dentists discover that they could lose their jobs for agreeing to endorse a new toothpaste. They set out, however, to create their own variety of toothpaste which would be worth losing their jobs over.
Video
ID                                       : 1
Format                                   : AVC
Format/Info                              : Advanced Video Codec
Format profile                           :
Format settings                          : CABAC / 9 Ref Frames
Format settings, CABAC                   : Yes
Format settings, Reference frames        : 9 frames
Codec ID                                 : V_MPEG4/ISO/AVC
Duration                                 : 1 h 28 min
Bit rate                                 : 6 892 kb/s
Width                                    : 1 198 pixels
Height                                   : 720 pixels
Display aspect ratio                     : 5:3
Frame rate mode                          : Constant
Frame rate                               : 24.000 FPS
Color space                              : YUV
Chroma subsampling                       : 4:2:0
Bit depth                                : 8 bits
Scan type                                : Progressive
Bits/(Pixel*Frame)                       : 0.333
Stream size                              : 4.28 GiB (94%)
Writing library                          : x264 core 161 r3048 b86ae3c
Encoding settings                        : cabac=1 / ref=9 / deblock=1:-3:-3 / analyse=0x3:0x133 / me=umh / subme=10 / psy=1 / psy_rd=1.50:0.15 / mixed_ref=1 / me_range=24 / chroma_me=1 / trellis=2 / 8x8dct=1 / cqm=0 / deadzone=21,11 / fast_pskip=0 / chroma_qp_offset=-3 / threads=22 / lookahead_threads=3 / sliced_threads=0 / nr=0 / decimate=0 / interlaced=0 / bluray_compat=0 / constrained_intra=0 / bframes=8 / b_pyramid=2 / b_adapt=2 / b_bias=0 / direct=3 / weightb=1 / open_gop=0 / weightp=2 / keyint=250 / keyint_min=24 / scenecut=40 / intra_refresh=0 / rc_lookahead=60 / rc=crf / mbtree=1 / crf=18.0 / qcomp=0.60 / qpmin=0 / qpmax=69 / qpstep=4 / ip_ratio=1.40 / aq=3:0.50
Default                                  : Yes
Forced                                   : No
Color range                              : Limited
Matrix coefficients                      : BT.709

Audio
ID                                       : 2
Format                                   : FLAC
Format/Info                              : Free Lossless Audio Codec
Codec ID                                 : A_FLAC
Duration                                 : 1 h 28 min
Bit rate mode                            : Variable
Bit rate                                 : 392 kb/s
Channel(s)                               : 2 channels
Channel layout                           : L R
Sampling rate                            : 48.0 kHz
Frame rate                               : 11.719 FPS (4096 SPF)
Bit depth                                : 16 bits
Compression mode                         : Lossless
Stream size                              : 249 MiB (5%)
Writing library                          : libFLAC 1.3.2 (UTC 2017-01-01)
Language                                 : English
Default                                  : Yes
Forced                                   : No

Text
ID                                       : 3
Format                                   : PGS
Muxing mode                              : zlib
Codec ID                                 : S_HDMV/PGS
Codec ID/Info                            : Picture based subtitle format used on BDs/HD-DVDs
Duration                                 : 1 h 27 min
Bit rate                                 : 41.8 kb/s
Count of elements                        : 3073
Stream size                              : 26.3 MiB (1%)
Title                                    : SDH
Language                                 : English
Default                                  : No
Forced                                   : No

Menu
00:00:00.000                             : en:Chapter 01
00:05:05.500                             : en:Chapter 02
00:13:27.333                             : en:Chapter 03
00:17:56.917                             : en:Chapter 04
00:23:37.708                             : en:Chapter 05
00:30:19.250                             : en:Chapter 06
00:39:30.250                             : en:Chapter 07
00:43:49.500                             : en:Chapter 08
00:55:50.542                             : en:Chapter 09
01:06:51.458                             : en:Chapter 10
01:14:06.625                             : en:Chapter 11
01:22:13.708                             : en:Chapter 12

[/url]



                                                                                                                                                                                                        
                                                                                                                                                                                                                                                                                                                                                                                                                                                                                                                                                                                                                                                                                                                                                                                                                                                        
81a6074b2380132d70c77a0f1503eb20.zip (46.06 KB, 下载次数: 0)

回复

使用道具 举报

小黑屋|百度云资源分享吧 ( 京ICP备15014721号-2 )

本网站所有资源来自网络,如无意中侵犯了您的权益,请发邮件至 [email protected],立即清除相关链接

GMT+8, 2021-4-19 01:45 , Processed in 0.095155 second(s), 23 queries .

Powered by Discuz! X3.2

© 2001-2013 Comsenz Inc.

快速回复 返回顶部 返回列表