百度云资源论坛

 找回密码
 立即注册

[纯净版][BT下载][第八个嫌疑人][WebDL-MKV/4.10GB][国语][2160P][大鹏林家栋张颂文20 ...

[复制链接]
阿辉 发表于 2023-11-19 17:33:07 | 显示全部楼层 |阅读模式
-->海报

5a09a5d630bed1f5dbb7c87c5e5d50c0.jpg



1e2d6001d9c6fca3fc62c6ae5095c40a.jpg



译  名 第八个嫌疑人/第8个嫌疑人
片  名 Dust To Dust
年  代 2023
国  家 中国/中国香港
类  别 剧情/犯罪
语  言 汉语普通话/粤语
字  幕 中英硬字幕
评  分 6.1/10 from 126,854 users
链  接 
文件大小 4.10 GB
片  长 111 Min
导  演 李子俊 Jonathan Li
主  演 大鹏 Chengpeng Dong
     林家栋 Ka Tung Lam
     张颂文 Songwen Zhang
     齐溪 Xi Qi
     孙阳 Sunny Sun
     衣云鹤 Yunhe Yi
     邵胜杰 Shengjie Shao
     王梓尘 Zichen Wang
     徐锦明 Jinming Xu
     王建兵 Jianbing Wang
     刘占奎 Zhankui Liu

简介

  一九九五年,广东发生一起大型武装劫钞案,一辆银行运钞车被五名持枪匪徒抢劫,损失高达一千五百万,三名押钞员更在事件中丧生。事件震惊全国,公安局马上成立专案组,以王守月(林家栋 饰)和何蓝(张颂文 饰)为首的刑警迅速搜证,成功掌握五名抢匪去向并逐一拘捕。叫人意外的是,抢匪供出案件背后的真正策划者,竟是一家建筑公司的老板陈信文(大鹏 饰)及其堂弟陈欣年(孙阳 饰)。

  陈信文和陈欣年功败垂成,踏上逃亡之路,从此人间蒸发。时间一晃二十一年,当年的案件早已淡出大众的视野,王守月也从公安局退休。然而,一条寻常不过的视频上出现的一个模糊身影,却让他重燃破案的希望。王守月只身前往边境城市,寻找视频中的“陌生人”。最后的正邪对决,在二十一年后正式展开。


Video
Format                         : HEVC
Format/Info                    : High Efficiency Video Coding
Format profile                 : Main@L5@Main
Codec ID                       : V_MPEGH/ISO/HEVC
Duration                       : 1 h 51 min
Bit rate                       : 5 006 kb/s
Width                          : 3 840 pixels
Height                         : 1 608 pixels
Display aspect ratio           : 2.40:1
Frame rate mode                : Constant
Frame rate                     : 24.000 FPS
Color space                    : YUV
Chroma subsampling             : 4:2:0
Bit depth                      : 8 bits
Bits/(Pixel*Frame)             : 0.034
Stream size                    : 3.91 GiB (95%)

Audio
Format                         : E-AC-3
Format/Info                    : Enhanced AC-3
Commercial name                : Dolby Digital Plus
Codec ID                       : A_EAC3
Duration                       : 1 h 51 min
Bit rate mode                  : Constant
Bit rate                       : 256 kb/s
Channel(s)                     : 6 channels
Channel layout                 : L R C LFE Ls Rs
Sampling rate                  : 48.0 kHz
Frame rate                     : 31.250 FPS (1536 SPF)
Compression mode               : Lossy
Stream size                    : 205 MiB (5%)
Language                       : Chinese
Service kind                   : Complete Main

截图

83570a427196eb9d04e79945b2f3cc6b.jpg




                                                                                                                                                                                                        
                                                                                                                                                                                                                                                                                                                                                                                                                                                                                                                                                                                                                                                                                                                                                                                                                                                        
0fe0d83f36eb9d748806f7b2cd356d87.torrent (21.81 KB, 下载次数: 0)

回复

使用道具 举报

小黑屋|百度云资源分享吧 ( 京ICP备15014721号-2 )

本网站所有资源来自网络,如无意中侵犯了您的权益,请发邮件至 [email protected],立即清除相关链接

GMT+8, 2024-6-24 01:33 , Processed in 0.091532 second(s), 27 queries .

Powered by Discuz! X3.2

© 2001-2013 Comsenz Inc.

快速回复 返回顶部 返回列表