百度云资源论坛

 找回密码
 立即注册

[BT下载][城市猎人][WebDL-MKV/4.04GB][中字][1080P][日本2024最新热门动作喜剧] ... ...

[复制链接]
阿辉 发表于 7 天前 | 显示全部楼层 |阅读模式
海报





译  名 城市猎人
片  名 City Hunter
年  代 2024
国  家 日本
类  别 动作/喜剧/犯罪/悬疑/爱情
语  言 日语
字  幕 中简/中繁
评  分 6.6/10 from 2,964 users
链  接 https://movie.douban.com/subject/36187176
文件大小 4.04 GB
片  长 102 Min
导  演 佐藤祐市 Yuichi Sato
主  演 铃木亮平 Ryohei Suzuki
     森田望智 Misato Morita
     安藤政信 Masanobu Ando
     木村文乃 Fumino Kimura
     华村飞鸟 Asuka Hanamura
     桥爪功 Isao Hashizume

简介

  个性既冷静又热血、既有型又傻气,令人闻风丧胆的主角来到现代东京新宿,《城市猎人》的原创故事就此展开!本片由铃木亮平领衔主演,讲述头号“清道夫”冴羽獠专为地下犯罪世界清理麻烦,在现代新宿踏上一段精彩刺激、动作连场的冒险旅程。


Video
Format : AVC
Format/Info : Advanced Video Codec
Format settings : CABAC / 3 Ref Frames
Format settings, CABAC : Yes
Format settings, Reference fra : 3 frames
Codec ID : V_MPEG4/ISO/AVC
Duration : 1 h 44 min
Bit rate mode : Variable
Bit rate : 5 000 kb/s
Maximum bit rate : 7 500 kb/s
Width : 1 920 pixels
Height : 1 080 pixels
Display aspect ratio : 16:9
Frame rate mode : Constant
Frame rate : 24.000 FPS
Color space : YUV
Chroma subsampling : 4:2:0
Bit depth : 8 bits
Scan type : Progressive
Bits/(Pixel*Frame) : 0.100
Stream size : 3.48 GiB (86%)

Audio
Format : E-AC-3 JOC
Format/Info : Enhanced AC-3 with Joint Object Coding
Commercial name : Dolby Digital Plus with Dolby Atmos
Codec ID : A_EAC3
Duration : 1 h 44 min
Bit rate mode : Constant
Bit rate : 768 kb/s
Channel(s) : 6 channels
Channel layout : L R C LFE Ls Rs
Sampling rate : 48.0 kHz
Frame rate : 31.250 FPS (1536 SPF)
Compression mode : Lossy
Stream size : 572 MiB (14%)
Language : Japanese
Service kind : Complete Main

截图






  

回复

使用道具 举报

小黑屋|百度云资源分享吧 ( 京ICP备15014721号-2 )

本网站所有资源来自网络,如无意中侵犯了您的权益,请发邮件至 [email protected],立即清除相关链接

GMT+8, 2024-7-14 19:04 , Processed in 0.075475 second(s), 27 queries .

Powered by Discuz! X3.2

© 2001-2013 Comsenz Inc.

快速回复 返回顶部 返回列表