百度云资源论坛

 找回密码
 立即注册

[BT下载][犯罪都市4][WebDL-MKV/6.12GB][中字][1080P][马东锡2024新动作犯罪猛片] ... ...

[复制链接]
归沫 发表于 6 天前 | 显示全部楼层 |阅读模式
海报









译  名 犯罪都市4/犯罪都市:铁拳清算(港)
片  名 The Roundup: Punishment
年  代 2024
国  家 韩国
类  别 动作/犯罪/惊悚
语  言 韩语
字  幕 中简/中繁
评  分 6.6/10 from 14,503 users
链  接 https://movie.douban.com/subject/36085987
文件大小 6.12 GB
片  长 109 Min
导  演 许明行 Heo Myeong Haeng
主  演 马东锡 Ma Dong-seok
     金武烈 Moo-yeol Kim
     李东辉 Dong-Hwi Lee
     朴智焕 Park Ji-hwan
     李主傧 Joo-bin Lee
     金敏载 Kim Min-jae
     金英熊 Young-woong Kim

简介

  “怪物刑警”马锡道(马东锡 饰)这次要对抗的是规模最大的网络非法赌博组织首脑白昌其(金武烈 饰),他是特种部队佣兵出身的恶徒;另外还要对付IT业界出身的天才CEO张东哲(李东辉 饰)。马锡道将与华丽回归的张夷秀(朴智焕 饰)、广搜队及网络搜查队合作,展开更胜以往的扫荡行动!


Video
Format : AVC
Format/Info : Advanced Video Codec
Format settings : CABAC / 6 Ref Frames
Format settings, CABAC : Yes
Format settings, Reference fra : 6 frames
Format settings, GOP : M=1, N=30
Codec ID : V_MPEG4/ISO/AVC
Duration : 1 h 49 min
Bit rate mode : Variable
Bit rate : 7 822 kb/s
Maximum bit rate : 108 Mb/s
Width : 1 920 pixels
Height : 1 080 pixels
Display aspect ratio : 16:9
Frame rate mode : Constant
Frame rate : 24.000 FPS
Color space : YUV
Chroma subsampling : 4:2:0
Bit depth : 8 bits
Scan type : Progressive
Bits/(Pixel*Frame) : 0.157
Stream size : 5.97 GiB (97%)

Audio
Format : AAC LC
Format/Info : Advanced Audio Codec Low Complexity
Codec ID : A_AAC-2
Duration : 1 h 49 min
Bit rate : 192 kb/s
Channel(s) : 2 channels
Channel layout : L R
Sampling rate : 48.0 kHz
Frame rate : 46.875 FPS (1024 SPF)
Compression mode : Lossy
Stream size : 151 MiB (2%)
Language : Korean


截图






  

回复

使用道具 举报

小黑屋|百度云资源分享吧 ( 京ICP备15014721号-2 )

本网站所有资源来自网络,如无意中侵犯了您的权益,请发邮件至 [email protected],立即清除相关链接

GMT+8, 2024-7-14 18:01 , Processed in 0.083026 second(s), 27 queries .

Powered by Discuz! X3.2

© 2001-2013 Comsenz Inc.

快速回复 返回顶部 返回列表