百度云资源论坛

 找回密码
 立即注册

[BT下载][沉默笔录][WebDL-MKV/2.94GB][国语][2160P][中国2023章宇最新悬疑犯罪] ... ...

[复制链接]
阿辉 发表于 4 天前 | 显示全部楼层 |阅读模式
海报









译  名 沉默笔录/野犬笔录
片  名 Record Without Words
年  代 2023
国  家 中国
类  别 剧情/悬疑/犯罪
语  言 汉语普通话/贵州方言
字  幕 中英硬字幕
评  分 6.8/10 from 6,351 users
链  接 https://movie.douban.com/subject/30396283
文件大小 2.94 GB
片  长 91 Min
导  演 郝飞环 Feihuan Hao
主  演 章宇 Yu Zhang
     马吟吟 Yinyin Ma
     孙敏 Min Sun
     楚布花羯 ChoBu HuaJe
     谭天 Tian Tan
     钟波 Bo Zhong
     董凡 Fan Dong

简介

  平西镇位于西南某地,90年代乡镇治安由联防队维护,联防队长李立忠(章宇 饰)的父亲意外死亡,与此同时镇里发生诡异的连环杀狗案,李立忠带领队员通过蹩脚的探案手法进行调查,通过一系列荒诞行动,李立忠发现杀狗案竟与父亲的死亡有千丝万缕的关系。在那个野蛮生长的时代下,面对真相的李立忠只能以沉默作答。


Video
Format : HEVC
Format/Info : High Efficiency Video Coding
Codec ID : V_MPEGH/ISO/HEVC
Duration : 1 h 31 min
Bit rate : 4 350 kb/s
Width : 3 840 pixels
Height : 1 712 pixels
Display aspect ratio : 2.25:1
Frame rate mode : Constant
Frame rate : 60.000 FPS
Color space : YUV
Chroma subsampling : 4:2:0
Bit depth : 8 bits
Bits/(Pixel*Frame) : 0.011
Stream size : 2.78 GiB (94%)

Audio
Format : E-AC-3
Format/Info : Enhanced AC-3
Commercial name : Dolby Digital Plus
Codec ID : A_EAC3
Duration : 1 h 31 min
Bit rate mode : Constant
Bit rate : 256 kb/s
Channel(s) : 6 channels
Channel layout : L R C LFE Ls Rs
Sampling rate : 48.0 kHz
Frame rate : 31.250 FPS (1536 SPF)
Compression mode : Lossy
Stream size : 168 MiB (6%)
Service kind : Complete Main

截图






  

回复

使用道具 举报

小黑屋|百度云资源分享吧 ( 京ICP备15014721号-2 )

本网站所有资源来自网络,如无意中侵犯了您的权益,请发邮件至 [email protected],立即清除相关链接

GMT+8, 2024-7-14 18:31 , Processed in 0.068796 second(s), 27 queries .

Powered by Discuz! X3.2

© 2001-2013 Comsenz Inc.

快速回复 返回顶部 返回列表