百度云资源论坛

 找回密码
 立即注册

云中阴影/云中的阴影 Shadow.in.the.Cloud.2020.720p.BluRay.x264-SHITHO...

[复制链接]
百度云资源 发表于 2021-2-7 18:55:57 | 显示全部楼层 |阅读模式
-->
帖子完整标题:云中阴影/云中的阴影 Shadow.in.the.Cloud.2020.720p.BluRay.x264-SHITHORROR 4.21GB


[/url]

◎译  名 云中阴影/云中的阴影/致命天际线(台)
◎片  名 Shadow In The Cloud
◎年  代 2020
◎产  地 新西兰,美国
◎类  别 动作 / 恐怖
◎语  言 英语
◎上映日期 2020-09-12(多伦多电影节) / 2021-01-01(美国)
◎IMDb评分  4.7/10 from 10127 users
◎IMDb链接  
◎豆瓣评分 5.1/10 from 1832 users
◎豆瓣链接 
◎片  长 83分钟
◎导  演 罗丝安妮·梁 Roseanne Liang
◎编  剧 马克斯·兰迪斯   Max Landis / 罗丝安妮·梁 Roseanne Liang
◎主  演 科洛·莫瑞兹 Chlo? Grace Moretz
       尼克·罗宾森 Nick Robinson
       比尤拉·寇尔 Beulah Koale
       泰勒·约翰·史密斯 Taylor John Smith
       卡兰·马尔韦 Callan Mulvey
       拜伦·科尔 Byron Coll

◎标  签 动作 | 美国 | 恐怖 | 惊悚 | 2020 | 新西兰 | 科幻 | 战争

◎简  介

  科洛·莫瑞兹将出演动作恐怖新片[云中阴影](Shadow In The Cloud,暂译)。本片由罗丝安妮·梁执导,马克斯·兰迪斯([超能失控])撰写剧本。莫瑞兹扮演一名携带绝密文件的上尉,她登上B-17轰炸机与迎面而来的日本伏击以及全男性的机组人员作斗争。

◎获奖情况

  第45届多伦多国际电影节 ?(2020)
  观众选择奖午夜疯狂单元
Video
ID                                       : 1
Format                                   : AVC
Format/Info                              : Advanced Video Codec
Format profile                           :
Format settings                          : CABAC / 8 Ref Frames
Format settings, CABAC                   : Yes
Format settings, Reference frames        : 8 frames
Codec ID                                 : V_MPEG4/ISO/AVC
Duration                                 : 1 h 23 min
Bit rate                                 : 6 567 kb/s
Width                                    : 1 280 pixels
Height                                   : 536 pixels
Display aspect ratio                     : 2.40:1
Frame rate mode                          : Constant
Frame rate                               : 23.976 (24000/1001/189150) FPS
Color space                              : YUV
Chroma subsampling                       : 4:2:0
Bit depth                                : 8 bits
Scan type                                : Progressive
Bits/(Pixel*Frame)                       : 0.399
Stream size                              : 3.83 GiB (91%)
Writing library                          : x264 core 161 r3043 59c0609
Encoding settings                        : cabac=1 / ref=8 / deblock=1:-3:-3 / analyse=0x3:0x133 / me=umh / subme=9 / psy=1 / psy_rd=1.00:0.00 / mixed_ref=1 / me_range=24 / chroma_me=1 / trellis=2 / 8x8dct=1 / cqm=0 / deadzone=21,11 / fast_pskip=0 / chroma_qp_offset=-2 / threads=17 / lookahead_threads=1 / sliced_threads=0 / nr=0 / decimate=0 / interlaced=0 / bluray_compat=0 / constrained_intra=0 / bframes=3 / b_pyramid=2 / b_adapt=2 / b_bias=0 / direct=3 / weightb=1 / open_gop=0 / weightp=2 / keyint=250 / keyint_min=23 / scenecut=40 / intra_refresh=0 / rc=crf / mbtree=0 / crf=16.0 / qcomp=0.60 / qpmin=0 / qpmax=69 / qpstep=4 / ip_ratio=1.40 / pb_ratio=1.30 / aq=3:0.80
Default                                  : Yes
Forced                                   : No
Color range                              : Limited
Matrix coefficients                      : BT.709

Audio
ID                                       : 2
Format                                   : AC-3
Format/Info                              : Audio Coding 3
Commercial name                          : Dolby Digital
Codec ID                                 : A_AC3
Duration                                 : 1 h 23 min
Bit rate mode                            : Constant
Bit rate                                 : 640 kb/s
Channel(s)                               : 6 channels
Channel layout                           : L R C LFE Ls Rs
Sampling rate                            : 48.0 kHz
Frame rate                               : 31.250 FPS (1536 SPF)
Compression mode                         : Lossy
Stream size                              : 382 MiB (9%)
Title                                    : AC-3 5.1
Language                                 : English
Service kind                             : Complete Main
Default                                  : Yes
Forced                                   : No

Text
ID                                       : 3
Format                                   : PGS
Muxing mode                              : zlib
Codec ID                                 : S_HDMV/PGS
Codec ID/Info                            : Picture based subtitle format used on BDs/HD-DVDs
Duration                                 : 1 h 16 min
Bit rate                                 : 51.3 kb/s
Count of elements                        : 3270
Stream size                              : 28.2 MiB (1%)
Title                                    : English SDH
Language                                 : English
Default                                  : No
Forced                                   : No

Menu
00:00:00.000                             : en:Chapter 01
00:17:03.606                             : en:Chapter 02
00:33:19.831                             : en:Chapter 03
00:50:06.545                             : en:Chapter 04
01:03:30.515                             : en:Chapter 05
01:14:45.022                             : en:Chapter 06
[/url][/url][/url]



                                                                                                                                                                                                        
                                                                                                                                                                                                                                                                                                                                                                                                                                                                                                                                                                                                                                                                                                                                                                                                                                                        
e9819ce9c2036ebbb96a3f892c754e5c.zip (42.82 KB, 下载次数: 0)

回复

使用道具 举报

小黑屋|百度云资源分享吧 ( 京ICP备15014721号-2 )

本网站所有资源来自网络,如无意中侵犯了您的权益,请发邮件至 [email protected],立即清除相关链接

GMT+8, 2021-3-3 08:01 , Processed in 0.136233 second(s), 24 queries .

Powered by Discuz! X3.2

© 2001-2013 Comsenz Inc.

快速回复 返回顶部 返回列表