百度云资源论坛

 找回密码
 立即注册

死亡土地 Two.of.Us.2020.PROPER.1080p.BluRay.x264-GUACAMOLE 4.49GB

[复制链接]
百度云资源 发表于 2021-2-10 19:31:38 | 显示全部楼层 |阅读模式
-->
帖子完整标题:死亡土地 Two.of.Us.2020.PROPER.1080p.BluRay.x264-GUACAMOLE 4.49GB


[/url]

◎译  名 死亡土地/two of us
◎片  名 Dead Earth
◎年  代 2020
◎产  地 美国
◎类  别 剧情 / 动作 / 惊悚
◎语  言 英语
◎上映日期 2020-01-28(美国)
◎IMDb评分  3.3/10 from 906 users
◎IMDb链接  
◎豆瓣评分 /10 from 0 users
◎豆瓣链接 
◎导  演 威克·考撒亚南达 Wych Kaosayananda

◎标  签 美国 | 惊悚 | 843rt89348989t8348948

◎简  介

  A parallel story to Kaosayananda’s The Driver.
Video
ID                                       : 1
Format                                   : AVC
Format/Info                              : Advanced Video Codec
Format profile                           :
Format settings                          : CABAC / 5 Ref Frames
Format settings, CABAC                   : Yes
Format settings, Reference frames        : 5 frames
Codec ID                                 : V_MPEG4/ISO/AVC
Duration                                 : 1 h 20 min
Bit rate                                 : 6 013 kb/s
Width                                    : 1 920 pixels
Height                                   : 808 pixels
Display aspect ratio                     : 2.40:1
Frame rate mode                          : Constant
Frame rate                               : 23.976 (24000/1001/189150) FPS
Color space                              : YUV
Chroma subsampling                       : 4:2:0
Bit depth                                : 8 bits
Scan type                                : Progressive
Bits/(Pixel*Frame)                       : 0.162
Stream size                              : 3.38 GiB (75%)
Writing library                          : x264 core 161 r3043 59c0609
Encoding settings                        : cabac=1 / ref=5 / deblock=1:-3:-3 / analyse=0x3:0x133 / me=umh / subme=9 / psy=1 / psy_rd=1.00:0.00 / mixed_ref=1 / me_range=16 / chroma_me=1 / trellis=2 / 8x8dct=1 / cqm=0 / deadzone=21,11 / fast_pskip=0 / chroma_qp_offset=-2 / threads=24 / lookahead_threads=2 / sliced_threads=0 / nr=0 / decimate=1 / interlaced=0 / bluray_compat=0 / constrained_intra=0 / bframes=3 / b_pyramid=2 / b_adapt=2 / b_bias=0 / direct=3 / weightb=1 / open_gop=0 / weightp=2 / keyint=250 / keyint_min=23 / scenecut=40 / intra_refresh=0 / rc_lookahead=60 / rc=crf / mbtree=1 / crf=17.0 / qcomp=0.60 / qpmin=0 / qpmax=69 / qpstep=4 / ip_ratio=1.40 / aq=3:1.00
Default                                  : Yes
Forced                                   : No
Color range                              : Limited
Matrix coefficients                      : BT.709

Audio
ID                                       : 2
Format                                   : DTS XLL
Format/Info                              : Digital Theater Systems
Commercial name                          : DTS-HD Master Audio
Codec ID                                 : A_DTS
Duration                                 : 1 h 20 min
Bit rate mode                            : Variable
Bit rate                                 : 1 960 kb/s
Channel(s)                               : 6 channels
Channel layout                           : C L R Ls Rs LFE
Sampling rate                            : 48.0 kHz
Frame rate                               : 93.750 FPS (512 SPF)
Bit depth                                : 16 bits
Compression mode                         : Lossless
Stream size                              : 1.10 GiB (25%)
Language                                 : English
Default                                  : Yes
Forced                                   : No

Text
ID                                       : 3
Format                                   : PGS
Muxing mode                              : zlib
Codec ID                                 : S_HDMV/PGS
Codec ID/Info                            : Picture based subtitle format used on BDs/HD-DVDs
Duration                                 : 1 h 17 min
Bit rate                                 : 5 060 b/s
Count of elements                        : 369
Stream size                              : 2.79 MiB (0%)
Title                                    : Vobsubs
Language                                 : German
Default                                  : No
Forced                                   : No

Menu
00:00:00.000                             : en:00:00:00.000
00:06:27.887                             : en:00:06:27.887
00:13:08.663                             : en:00:13:08.663
00:18:16.846                             : en:00:18:16.846
00:25:31.572                             : en:00:25:31.572
00:36:27.227                             : en:00:36:27.227
00:41:41.290                             : en:00:41:41.290
00:46:35.751                             : en:00:46:35.751
00:52:32.566                             : en:00:52:32.566
01:00:36.132                             : en:01:00:36.132
01:11:22.653                             : en:01:11:22.653
01:18:06.432                             : en:01:18:06.432
[/url]



                                                                                                                                                                                                        
                                                                                                                                                                                                                                                                                                                                                                                                                                                                                                                                                                                                                                                                                                                                                                                                                                                        
0197ed96cb04db82f1c30ed1cc90ddaf.zip (45.63 KB, 下载次数: 0)

回复

使用道具 举报

小黑屋|百度云资源分享吧 ( 京ICP备15014721号-2 )

本网站所有资源来自网络,如无意中侵犯了您的权益,请发邮件至 [email protected],立即清除相关链接

GMT+8, 2021-3-8 04:15 , Processed in 0.210467 second(s), 24 queries .

Powered by Discuz! X3.2

© 2001-2013 Comsenz Inc.

快速回复 返回顶部 返回列表