百度云资源论坛

 找回密码
 立即注册

喷气式飞机一代-今天的女孩如何爱男人 Jet.Generation.1968.7...

[复制链接]
百度云资源 发表于 2021-2-11 19:21:18 | 显示全部楼层 |阅读模式
-->
帖子完整标题:喷气式飞机一代----今天的女孩如何爱男人 Jet.Generation.1968.720p.BluRay.x264-BiPOLAR 7.10GB


[/url]

◎译  名 喷气式飞机一代----今天的女孩如何爱男人/How Girls Love Men of Today
◎片  名 Jet Generation - Wie M?dchen heute M?nner lieben
◎年  代 1968
◎产  地 西德
◎类  别 
◎语  言 德语
◎上映日期 1968-01-25(西德)
◎IMDb评分  4.8/10 from 61 users
◎IMDb链接  
◎豆瓣评分 /10 from 0 users
◎豆瓣链接 
◎片  长 98分钟

◎标  签 德国 | EckhartSchmidt | 1960s

◎简  介

  暂无相关剧情介绍
Video
ID                                       : 1
Format                                   : AVC
Format/Info                              : Advanced Video Codec
Format profile                           :
Format settings                          : CABAC / 9 Ref Frames
Format settings, CABAC                   : Yes
Format settings, Reference frames        : 9 frames
Codec ID                                 : V_MPEG4/ISO/AVC
Duration                                 : 1 h 35 min
Bit rate                                 : 10.0 Mb/s
Width                                    : 1 200 pixels
Height                                   : 720 pixels
Display aspect ratio                     : 5:3
Frame rate mode                          : Constant
Frame rate                               : 23.976 (24000/1001/189150) FPS
Color space                              : YUV
Chroma subsampling                       : 4:2:0
Bit depth                                : 8 bits
Scan type                                : Progressive
Bits/(Pixel*Frame)                       : 0.484
Stream size                              : 6.66 GiB (94%)
Writing library                          : x264 core 161 r3027 4121277
Encoding settings                        : cabac=1 / ref=9 / deblock=1:-3:-3 / analyse=0x3:0x133 / me=umh / subme=10 / psy=1 / psy_rd=1.00:0.15 / mixed_ref=1 / me_range=24 / chroma_me=1 / trellis=2 / 8x8dct=1 / cqm=0 / deadzone=21,11 / fast_pskip=1 / chroma_qp_offset=-3 / threads=18 / lookahead_threads=3 / sliced_threads=0 / nr=0 / decimate=1 / interlaced=0 / bluray_compat=0 / constrained_intra=0 / bframes=8 / b_pyramid=2 / b_adapt=2 / b_bias=0 / direct=3 / weightb=1 / open_gop=0 / weightp=2 / keyint=250 / keyint_min=23 / scenecut=40 / intra_refresh=0 / rc_lookahead=60 / rc=crf / mbtree=1 / crf=19.2 / qcomp=0.60 / qpmin=0 / qpmax=69 / qpstep=4 / ip_ratio=1.40 / aq=3:0.50
Language                                 : English
Default                                  : Yes
Forced                                   : No
Color range                              : Limited
Matrix coefficients                      : BT.709

Audio #1
ID                                       : 2
Format                                   : FLAC
Format/Info                              : Free Lossless Audio Codec
Codec ID                                 : A_FLAC
Duration                                 : 1 h 35 min
Bit rate mode                            : Variable
Bit rate                                 : 333 kb/s
Channel(s)                               : 1 channel
Channel layout                           : C
Sampling rate                            : 48.0 kHz
Frame rate                               : 11.719 FPS (4096 SPF)
Bit depth                                : 16 bits
Compression mode                         : Lossless
Stream size                              : 227 MiB (3%)
Writing library                          : libFLAC 1.2.1 (UTC 2007-09-17)
Language                                 : German
Default                                  : Yes
Forced                                   : No

Audio #2
ID                                       : 3
Format                                   : FLAC
Format/Info                              : Free Lossless Audio Codec
Codec ID                                 : A_FLAC
Duration                                 : 1 h 35 min
Bit rate mode                            : Variable
Bit rate                                 : 313 kb/s
Channel(s)                               : 1 channel
Channel layout                           : C
Sampling rate                            : 48.0 kHz
Frame rate                               : 11.719 FPS (4096 SPF)
Bit depth                                : 16 bits
Compression mode                         : Lossless
Stream size                              : 213 MiB (3%)
Writing library                          : libFLAC 1.2.1 (UTC 2007-09-17)
Language                                 : English
Default                                  : No
Forced                                   : No

Text #1
ID                                       : 4
Format                                   : UTF-8
Codec ID                                 : S_TEXT/UTF8
Codec ID/Info                            : UTF-8 Plain Text
Duration                                 : 1 h 30 min
Bit rate                                 : 46 b/s
Count of elements                        : 966
Stream size                              : 30.9 KiB (0%)
Title                                    : English
Language                                 : English
Default                                  : Yes
Forced                                   : Yes

Text #2
ID                                       : 5
Format                                   : PGS
Muxing mode                              : zlib
Codec ID                                 : S_HDMV/PGS
Codec ID/Info                            : Picture based subtitle format used on BDs/HD-DVDs
Duration                                 : 1 h 30 min
Bit rate                                 : 11.5 kb/s
Count of elements                        : 1504
Stream size                              : 7.41 MiB (0%)
Title                                    : English
Language                                 : English
Default                                  : No
Forced                                   : No

Text #3
ID                                       : 6
Format                                   : UTF-8
Codec ID                                 : S_TEXT/UTF8
Codec ID/Info                            : UTF-8 Plain Text
Duration                                 : 51 s 718 ms
Bit rate                                 : 68 b/s
Count of elements                        : 14
Stream size                              : 445 Bytes (0%)
Title                                    : German forced
Language                                 : German
Default                                  : No
Forced                                   : No

Text #4
ID                                       : 7
Format                                   : PGS
Muxing mode                              : zlib
Codec ID                                 : S_HDMV/PGS
Codec ID/Info                            : Picture based subtitle format used on BDs/HD-DVDs
Duration                                 : 51 s 718 ms
Bit rate                                 : 16.3 kb/s
Count of elements                        : 21
Stream size                              : 103 KiB (0%)
Title                                    : German forced
Language                                 : German
Default                                  : No
Forced                                   : No

Text #5
ID                                       : 8
Format                                   : UTF-8
Codec ID                                 : S_TEXT/UTF8
Codec ID/Info                            : UTF-8 Plain Text
Duration                                 : 1 h 30 min
Bit rate                                 : 51 b/s
Count of elements                        : 966
Stream size                              : 34.1 KiB (0%)
Title                                    : German
Language                                 : German
Default                                  : No
Forced                                   : No

Text #6
ID                                       : 9
Format                                   : PGS
Muxing mode                              : zlib
Codec ID                                 : S_HDMV/PGS
Codec ID/Info                            : Picture based subtitle format used on BDs/HD-DVDs
Duration                                 : 1 h 30 min
Bit rate                                 : 12.5 kb/s
Count of elements                        : 1504
Stream size                              : 8.06 MiB (0%)
Title                                    : German
Language                                 : German
Default                                  : No
Forced                                   : No

Menu
00:00:00.000                             : en:00:00:00.000
00:00:07.216                             : en:00:00:07.216
00:02:28.065                             : en:00:02:28.065
00:05:45.220                             : en:00:05:45.220
00:13:03.783                             : en:00:13:03.783
00:18:24.520                             : en:00:18:24.520
00:26:24.416                             : en:00:26:24.416
00:30:37.210                             : en:00:30:37.210
00:37:12.105                             : en:00:37:12.105
00:43:13.216                             : en:00:43:13.216
00:46:24.407                             : en:00:46:24.407
00:49:33.345                             : en:00:49:33.345
00:53:11.397                             : en:00:53:11.397
00:55:12.726                             : en:00:55:12.726
01:01:18.216                             : en:01:01:18.216
01:05:06.444                             : en:01:05:06.444
01:09:52.855                             : en:01:09:52.855
01:19:28.764                             : en:01:19:28.764
01:25:21.325                             : en:01:25:21.325
01:31:33.363                             : en:01:31:33.363
[/url]



                                                                                                                                                                                                        
                                                                                                                                                                                                                                                                                                                                                                                                                                                                                                                                                                                                                                                                                                                                                                                                                                                        
1c02418545e4ace5171c38b32cb40128.zip (36.21 KB, 下载次数: 0)

回复

使用道具 举报

小黑屋|百度云资源分享吧 ( 京ICP备15014721号-2 )

本网站所有资源来自网络,如无意中侵犯了您的权益,请发邮件至 [email protected],立即清除相关链接

GMT+8, 2021-3-3 07:16 , Processed in 0.119909 second(s), 24 queries .

Powered by Discuz! X3.2

© 2001-2013 Comsenz Inc.

快速回复 返回顶部 返回列表