百度云资源论坛

 找回密码
 立即注册

遥远的街区 A.Distant.Neighbourhood.2010.REPACK.720p.BluRay.x264-USURY 4....

[复制链接]
百度云资源 发表于 2021-2-11 19:21:18 | 显示全部楼层 |阅读模式
-->
帖子完整标题:遥远的街区 A.Distant.Neighbourhood.2010.REPACK.720p.BluRay.x264-USURY 4.32GB


[/url]

◎译  名 遥远的街区/Vertraute Fremde/熟悉的陌生人/远乡/重返少年时
◎片  名 Quartier lointain
◎年  代 2010
◎产  地 比利时,卢森堡,法国,德国
◎类  别 剧情 / 奇幻
◎语  言 法语
◎上映日期 2010-05-20(德国) / 2010-11-24(法国/比利时)
◎IMDb评分  7/10 from 1547 users
◎IMDb链接  
◎豆瓣评分 7.6/10 from 1629 users
◎豆瓣链接 
◎片  长 98分钟
◎导  演 山姆·贾巴尔斯基 Sam Garbarski
◎编  剧 菲利普·布莱斯本 Philippe Blasband / 山姆·贾巴尔斯基 Sam Garbarski / 热罗姆·托内尔 Jér?me Tonnerre
◎主  演 利奥·勒格朗 Léo Legrand
       乔纳森·扎凯 Jonathan Zacca?
       亚历山德拉·玛丽亚·拉娜 Alexandra Maria Lara
       帕斯卡尔·格雷戈里 Pascal Greggory
       Laura Martin
       埃弗利娜·迪迪 Evelyne Didi
       塔妮娅·贾巴尔斯基 Tania Garbarski
       艾莉西亚·德佩克 Alexia Depicker

◎标  签 法国 | 穿越 | 温情 | 法国电影 | 剧情 | 比利时 | 德国 | 奇幻

◎简  介

  托马斯(莱奥·勒格兰德 Léo Legrand 饰)年过五十,一次机缘巧合之下,他回到了阔别已久的家乡,让他没有想到的是,自己竟然意外的穿越回了四十年前,衰老的灵魂回到了年轻的身躯之中,记忆深处似曾相识的回忆和景象如今一一栩栩如生地展现在了托马斯眼前。
  
  就这样,托马斯得以重新见到了母亲安娜(亚历山德拉·玛丽亚·拉那 Alexandra Maria Lara 饰)和父亲布鲁诺(乔纳森·扎凯 Jonathan Zacca? 饰),久别重逢的喜悦平静之后,他决定做一件他早就想做的事情。曾经,布鲁诺抛弃了安娜,而这一次,托马斯要利用这个千载难逢的机会改变这一历史。然而,无论怎样努力,父亲还是离开了,但是,这一次,托马斯终于知道了父亲做出这一选择的真正原因。
Video
ID                                       : 1
Format                                   : AVC
Format/Info                              : Advanced Video Codec
Format profile                           :
Format settings                          : CABAC / 9 Ref Frames
Format settings, CABAC                   : Yes
Format settings, Reference frames        : 9 frames
Codec ID                                 : V_MPEG4/ISO/AVC
Duration                                 : 1 h 38 min
Bit rate                                 : 5 662 kb/s
Width                                    : 1 280 pixels
Height                                   : 694 pixels
Display aspect ratio                     : 1.85:1
Frame rate mode                          : Constant
Frame rate                               : 24.000 FPS
Color space                              : YUV
Chroma subsampling                       : 4:2:0
Bit depth                                : 8 bits
Scan type                                : Progressive
Bits/(Pixel*Frame)                       : 0.266
Stream size                              : 3.88 GiB (90%)
Writing library                          : x264 core 161 r3027 4121277
Encoding settings                        : cabac=1 / ref=9 / deblock=1:-3:-3 / analyse=0x3:0x133 / me=umh / subme=10 / psy=1 / psy_rd=1.00:0.15 / mixed_ref=1 / me_range=24 / chroma_me=1 / trellis=2 / 8x8dct=1 / cqm=0 / deadzone=21,11 / fast_pskip=1 / chroma_qp_offset=-3 / threads=18 / lookahead_threads=3 / sliced_threads=0 / nr=0 / decimate=1 / interlaced=0 / bluray_compat=0 / constrained_intra=0 / bframes=8 / b_pyramid=2 / b_adapt=2 / b_bias=0 / direct=3 / weightb=1 / open_gop=0 / weightp=2 / keyint=250 / keyint_min=24 / scenecut=40 / intra_refresh=0 / rc_lookahead=60 / rc=crf / mbtree=1 / crf=17.0 / qcomp=0.60 / qpmin=0 / qpmax=69 / qpstep=4 / ip_ratio=1.40 / aq=3:0.60
Language                                 : English
Default                                  : Yes
Forced                                   : No
Color range                              : Limited
Matrix coefficients                      : BT.709

Audio
ID                                       : 2
Format                                   : AC-3
Format/Info                              : Audio Coding 3
Commercial name                          : Dolby Digital
Codec ID                                 : A_AC3
Duration                                 : 1 h 38 min
Bit rate mode                            : Constant
Bit rate                                 : 640 kb/s
Channel(s)                               : 6 channels
Channel layout                           : L R C LFE Ls Rs
Sampling rate                            : 48.0 kHz
Frame rate                               : 31.250 FPS (1536 SPF)
Compression mode                         : Lossy
Stream size                              : 449 MiB (10%)
Language                                 : French
Service kind                             : Complete Main
Default                                  : Yes
Forced                                   : No

Text #1
ID                                       : 3
Format                                   : UTF-8
Codec ID                                 : S_TEXT/UTF8
Codec ID/Info                            : UTF-8 Plain Text
Duration                                 : 1 h 31 min
Bit rate                                 : 28 b/s
Count of elements                        : 687
Stream size                              : 19.4 KiB (0%)
Title                                    : English
Language                                 : English
Default                                  : Yes
Forced                                   : Yes

Text #2
ID                                       : 4
Format                                   : PGS
Muxing mode                              : zlib
Codec ID                                 : S_HDMV/PGS
Codec ID/Info                            : Picture based subtitle format used on BDs/HD-DVDs
Duration                                 : 1 h 31 min
Bit rate                                 : 8 038 b/s
Count of elements                        : 1452
Stream size                              : 5.26 MiB (0%)
Title                                    : Russian
Language                                 : Russian
Default                                  : No
Forced                                   : No

Menu
00:00:00.000                             : en:00:00:00.000
00:05:25.583                             : en:00:05:25.583
00:10:19.750                             : en:00:10:19.750
00:14:01.917                             : en:00:14:01.917
00:17:22.667                             : en:00:17:22.667
00:21:26.542                             : en:00:21:26.542
00:26:50.958                             : en:00:26:50.958
00:31:57.625                             : en:00:31:57.625
00:36:24.208                             : en:00:36:24.208
00:41:41.292                             : en:00:41:41.292
00:47:23.208                             : en:00:47:23.208
00:53:29.458                             : en:00:53:29.458
00:58:43.542                             : en:00:58:43.542
01:02:40.083                             : en:01:02:40.083
01:10:16.958                             : en:01:10:16.958
01:14:37.167                             : en:01:14:37.167
01:20:24.875                             : en:01:20:24.875
01:26:18.708                             : en:01:26:18.708
[/url]



                                                                                                                                                                                                        
                                                                                                                                                                                                                                                                                                                                                                                                                                                                                                                                                                                                                                                                                                                                                                                                                                                        
aee16b0e3f46d0a8d409299cf9324a5c.zip (43.94 KB, 下载次数: 0)

回复

使用道具 举报

小黑屋|百度云资源分享吧 ( 京ICP备15014721号-2 )

本网站所有资源来自网络,如无意中侵犯了您的权益,请发邮件至 [email protected],立即清除相关链接

GMT+8, 2021-3-3 07:35 , Processed in 0.115584 second(s), 24 queries .

Powered by Discuz! X3.2

© 2001-2013 Comsenz Inc.

快速回复 返回顶部 返回列表