百度云资源论坛

 找回密码
 立即注册

俄勒冈凤凰城/老来相争 Phoenix.Oregon.2019.1080p.BluRay.x264-BiPOLAR...

[复制链接]
百度云资源 发表于 2021-2-11 19:36:39 | 显示全部楼层 |阅读模式
-->
帖子完整标题:俄勒冈凤凰城/老来相争 Phoenix.Oregon.2019.1080p.BluRay.x264-BiPOLAR 6.26GB


[/url]

◎译  名 俄勒冈凤凰城/老来相争
◎片  名 Phoenix, Oregon
◎年  代 2019
◎产  地 美国
◎类  别 喜剧
◎语  言 英语
◎上映日期 2019-04-13(亚什兰独立电影节) / 2020-03-20(美国)
◎IMDb评分  5.3/10 from 244 users
◎IMDb链接  
◎豆瓣评分 /10 from 0 users
◎豆瓣链接 
◎片  长 108分钟
◎导  演 Gary Lundgren
◎编  剧 Gary Lundgren
◎主  演 詹姆斯·勒格罗 James LeGros
       杰西·博雷格 Jesse Borrego
       丽莎·艾德尔斯汀 Lisa Edelstein
       戴德里克·巴德 Diedrich Bader
       凯文·考利甘 Kevin Corrigan
       雷纳尔多·加列戈斯 Reynaldo Gallegos

◎标  签 美国 | [歐美]

◎简  介

  Two longtime friends battle mid-life crisis by opening a bowling alley/pizzeria in their small hometown.
Video
ID                                       : 1
Format                                   : AVC
Format/Info                              : Advanced Video Codec
Format profile                           :
Format settings                          : CABAC / 5 Ref Frames
Format settings, CABAC                   : Yes
Format settings, Reference frames        : 5 frames
Codec ID                                 : V_MPEG4/ISO/AVC
Duration                                 : 1 h 48 min
Bit rate                                 : 7 847 kb/s
Width                                    : 1 920 pixels
Height                                   : 800 pixels
Display aspect ratio                     : 2.40:1
Frame rate mode                          : Constant
Frame rate                               : 23.976 (24000/1001/189150) FPS
Color space                              : YUV
Chroma subsampling                       : 4:2:0
Bit depth                                : 8 bits
Scan type                                : Progressive
Bits/(Pixel*Frame)                       : 0.213
Stream size                              : 5.97 GiB (95%)
Writing library                          : x264 core 161 r3027 4121277
Encoding settings                        : cabac=1 / ref=5 / deblock=1:-3:-3 / analyse=0x3:0x133 / me=umh / subme=10 / psy=1 / psy_rd=1.00:0.15 / mixed_ref=1 / me_range=24 / chroma_me=1 / trellis=2 / 8x8dct=1 / cqm=0 / deadzone=21,11 / fast_pskip=1 / chroma_qp_offset=-3 / threads=18 / lookahead_threads=3 / sliced_threads=0 / nr=0 / decimate=1 / interlaced=0 / bluray_compat=0 / constrained_intra=0 / bframes=8 / b_pyramid=2 / b_adapt=2 / b_bias=0 / direct=3 / weightb=1 / open_gop=0 / weightp=2 / keyint=250 / keyint_min=23 / scenecut=40 / intra_refresh=0 / rc_lookahead=60 / rc=crf / mbtree=1 / crf=17.0 / qcomp=0.60 / qpmin=0 / qpmax=69 / qpstep=4 / ip_ratio=1.40 / aq=3:0.60
Language                                 : English
Default                                  : Yes
Forced                                   : No

Audio
ID                                       : 2
Format                                   : AC-3
Format/Info                              : Audio Coding 3
Commercial name                          : Dolby Digital
Codec ID                                 : A_AC3
Duration                                 : 1 h 48 min
Bit rate mode                            : Constant
Bit rate                                 : 384 kb/s
Channel(s)                               : 2 channels
Channel layout                           : L R
Sampling rate                            : 48.0 kHz
Frame rate                               : 31.250 FPS (1536 SPF)
Compression mode                         : Lossy
Stream size                              : 299 MiB (5%)
Language                                 : English
Service kind                             : Complete Main
Default                                  : Yes
Forced                                   : No

Menu
00:00:00.000                             : en:00:00:00.000
00:05:00.300                             : en:00:05:00.300
00:10:00.600                             : en:00:10:00.600
00:15:00.900                             : en:00:15:00.900
00:20:01.200                             : en:00:20:01.200
00:25:01.500                             : en:00:25:01.500
00:30:01.800                             : en:00:30:01.800
00:35:02.100                             : en:00:35:02.100
00:40:02.400                             : en:00:40:02.400
00:45:02.700                             : en:00:45:02.700
00:50:03.000                             : en:00:50:03.000
00:55:03.300                             : en:00:55:03.300
01:00:03.600                             : en:01:00:03.600
01:05:03.900                             : en:01:05:03.900
01:10:04.200                             : en:01:10:04.200
01:15:04.500                             : en:01:15:04.500
01:20:04.800                             : en:01:20:04.800
01:25:05.100                             : en:01:25:05.100
01:30:05.400                             : en:01:30:05.400
01:35:05.700                             : en:01:35:05.700
01:40:06.000                             : en:01:40:06.000
01:45:06.300                             : en:01:45:06.300
[/url]



                                                                                                                                                                                                        
                                                                                                                                                                                                                                                                                                                                                                                                                                                                                                                                                                                                                                                                                                                                                                                                                                                        
df2bf7597a04d946803fecb2cd8a6dbf.zip (32.01 KB, 下载次数: 0)

回复

使用道具 举报

小黑屋|百度云资源分享吧 ( 京ICP备15014721号-2 )

本网站所有资源来自网络,如无意中侵犯了您的权益,请发邮件至 [email protected],立即清除相关链接

GMT+8, 2021-3-8 05:16 , Processed in 0.122626 second(s), 24 queries .

Powered by Discuz! X3.2

© 2001-2013 Comsenz Inc.

快速回复 返回顶部 返回列表