百度云资源论坛

 找回密码
 立即注册

肌肉 Muscle.2019.720p.BluRay.x264-SCARE 5.87GB

[复制链接]
百度云资源 发表于 2021-2-14 07:38:38 | 显示全部楼层 |阅读模式
-->
帖子完整标题:肌肉 Muscle.2019.720p.BluRay.x264-SCARE 5.87GB


[/url]

◎译  名 肌肉
◎片  名 Muscle
◎年  代 2019
◎产  地 英国
◎类  别 惊悚
◎语  言 英语
◎上映日期 2019-10-11(伦敦电影节)
◎IMDb评分  6/10 from 256 users
◎IMDb链接  
◎豆瓣评分 /10 from 0 users
◎豆瓣链接 
◎片  长 109分钟
◎导  演 Gerard Johnson
◎编  剧 Gerard Johnson
◎主  演 洛林·布伦斯 Lorraine Burroughs
       克雷格·法布拉斯 Craig Fairbrass
       波丽·麦伯利 Polly Maberly
       西妮德·马修斯 Sinead Matthews
       彼得·费迪南多 Peter Ferdinando
       卡文·克勒金 Cavan Clerkin
       尼尔·格雷格·富尔顿 Niall Greig Fulton
       阿里·库克 Ali Cook
       戈登·布朗 Gordon Brown
       尼克·罗恩特里 Nick Rowntree

◎标  签 惊悚 | 己亥 | [歐美] | P-TallinnA入围主竞赛 | Gerard_Johnson | DVD2019

◎简  介

  Build him up. Tear him apart.

◎获奖情况

  第22届英国独立电影奖 ?(2019)
  最佳探索奖(提名)
Video
ID                                       : 1
Format                                   : AVC
Format/Info                              : Advanced Video Codec
Format profile                           :
Format settings                          : CABAC / 12 Ref Frames
Format settings, CABAC                   : Yes
Format settings, Reference frames        : 12 frames
Codec ID                                 : V_MPEG4/ISO/AVC
Duration                                 : 1 h 50 min
Bit rate                                 : 6 950 kb/s
Width                                    : 1 280 pixels
Height                                   : 536 pixels
Display aspect ratio                     : 2.40:1
Frame rate mode                          : Constant
Frame rate                               : 24.000 FPS
Color space                              : YUV
Chroma subsampling                       : 4:2:0
Bit depth                                : 8 bits
Scan type                                : Progressive
Bits/(Pixel*Frame)                       : 0.422
Stream size                              : 5.37 GiB (91%)
Writing library                          : x264 core 161 r3043 59c0609
Encoding settings                        : cabac=1 / ref=12 / deblock=1:-3:-3 / analyse=0x3:0x133 / me=umh / subme=10 / psy=1 / psy_rd=1.20:0.00 / mixed_ref=1 / me_range=24 / chroma_me=1 / trellis=2 / 8x8dct=1 / cqm=0 / deadzone=21,11 / fast_pskip=0 / chroma_qp_offset=-2 / threads=17 / lookahead_threads=2 / sliced_threads=0 / nr=0 / decimate=0 / interlaced=0 / bluray_compat=0 / constrained_intra=0 / bframes=8 / b_pyramid=2 / b_adapt=2 / b_bias=0 / direct=3 / weightb=1 / open_gop=0 / weightp=2 / keyint=250 / keyint_min=24 / scenecut=40 / intra_refresh=0 / rc_lookahead=60 / rc=crf / mbtree=1 / crf=16.0 / qcomp=0.60 / qpmin=0 / qpmax=69 / qpstep=4 / ip_ratio=1.40 / aq=3:0.90
Default                                  : Yes
Forced                                   : No
Color range                              : Limited
Matrix coefficients                      : BT.709

Audio
ID                                       : 2
Format                                   : AC-3
Format/Info                              : Audio Coding 3
Commercial name                          : Dolby Digital
Codec ID                                 : A_AC3
Duration                                 : 1 h 50 min
Bit rate mode                            : Constant
Bit rate                                 : 640 kb/s
Channel(s)                               : 6 channels
Channel layout                           : L R C LFE Ls Rs
Sampling rate                            : 48.0 kHz
Frame rate                               : 31.250 FPS (1536 SPF)
Compression mode                         : Lossy
Stream size                              : 506 MiB (8%)
Language                                 : English
Service kind                             : Complete Main
Default                                  : Yes
Forced                                   : No

Text
ID                                       : 3
Format                                   : PGS
Muxing mode                              : zlib
Codec ID                                 : S_HDMV/PGS
Codec ID/Info                            : Picture based subtitle format used on BDs/HD-DVDs
Duration                                 : 1 h 46 min
Bit rate                                 : 41.1 kb/s
Count of elements                        : 3072
Stream size                              : 31.3 MiB (1%)
Title                                    : SDH
Language                                 : English
Default                                  : No
Forced                                   : No

Menu
00:00:00.000                             : en:Chapter 01
00:07:24.750                             : en:Chapter 02
00:16:43.167                             : en:Chapter 03
00:27:17.042                             : en:Chapter 04
00:34:07.417                             : en:Chapter 05
00:44:40.292                             : en:Chapter 06
00:58:30.208                             : en:Chapter 07
01:05:31.958                             : en:Chapter 08
01:13:25.000                             : en:Chapter 09
01:23:55.667                             : en:Chapter 10
01:32:48.375                             : en:Chapter 11
01:40:47.708                             : en:Chapter 12
[/url]



                                                                                                                                                                                                        
                                                                                                                                                                                                                                                                                                                                                                                                                                                                                                                                                                                                                                                                                                                                                                                                                                                        
8964bf37ef5c77c40d4bf3834d2ba080.zip (30.02 KB, 下载次数: 0)

回复

使用道具 举报

小黑屋|百度云资源分享吧 ( 京ICP备15014721号-2 )

本网站所有资源来自网络,如无意中侵犯了您的权益,请发邮件至 [email protected],立即清除相关链接

GMT+8, 2021-3-3 07:58 , Processed in 0.120084 second(s), 24 queries .

Powered by Discuz! X3.2

© 2001-2013 Comsenz Inc.

快速回复 返回顶部 返回列表