百度云资源论坛

 找回密码
 立即注册

结束开始 Endings.Beginnings.2019.720p.BluRay.x264-RUSTED 4.03GB

[复制链接]
百度云资源 发表于 2021-2-14 07:38:38 | 显示全部楼层 |阅读模式
-->
帖子完整标题:结束开始 Endings.Beginnings.2019.720p.BluRay.x264-RUSTED 4.03GB


[/url]

◎译  名 结束,开始/No No No, Yes/不不不,好的/爱情,是开始还是结束(台)
◎片  名 Endings, Beginnings
◎年  代 2019
◎产  地 美国,韩国
◎类  别 剧情
◎语  言 英语
◎上映日期 2019-09-08(多伦多电影节) / 2020-04-17(美国)
◎IMDb评分  5.6/10 from 2847 users
◎IMDb链接  
◎豆瓣评分 5.3/10 from 464 users
◎豆瓣链接 
◎片  长 110分钟
◎导  演 德雷克·多雷穆斯 Drake Doremus
◎编  剧 德雷克·多雷穆斯 Drake Doremus
◎主  演 谢琳·伍德蕾 Shailene Woodley
       詹米·多南 Jamie Dornan
       塞巴斯蒂安·斯坦 Sebastian Stan
       马修·格雷·古柏勒 Matthew Gray Gubler
       林赛·斯隆 Lindsay Sloane
       沙米尔·安德森 Shamier Anderson
       加勒特·科菲 Garrett Coffey
       瑙伦·德沃芙 Noureen DeWulf
       玛丽·费伯 Mary Faber
       凯拉·塞吉维克 Kyra Sedgwick
       朱利安·沃克斯 Julian Works

◎标  签 塞巴斯蒂安·斯坦 | SebastianStan | 美国 | 爱情 | 剧情 | 詹米·多南 | 2019 | 美国电影

◎简  介

  影片看剧情很多雷穆斯,他也和小说家Jardine Libaire一起写剧本,聚焦伍德蕾饰演的三十多岁的女子Daphne在一年内遭遇的爱和心碎,她将以一连串事件、往想不到的方向去揭开自己人生的秘密。
Video
ID                                       : 1
Format                                   : AVC
Format/Info                              : Advanced Video Codec
Format profile                           :
Format settings                          : CABAC / 8 Ref Frames
Format settings, CABAC                   : Yes
Format settings, Reference frames        : 8 frames
Codec ID                                 : V_MPEG4/ISO/AVC
Duration                                 : 1 h 50 min
Bit rate                                 : 4 584 kb/s
Width                                    : 1 280 pixels
Height                                   : 538 pixels
Display aspect ratio                     : 2.40:1
Frame rate mode                          : Constant
Frame rate                               : 24.000 FPS
Color space                              : YUV
Chroma subsampling                       : 4:2:0
Bit depth                                : 8 bits
Scan type                                : Progressive
Bits/(Pixel*Frame)                       : 0.277
Stream size                              : 3.53 GiB (87%)
Writing library                          : x264 core 161 r3044 a7e2c6a
Encoding settings                        : cabac=1 / ref=8 / deblock=1:-3:-3 / analyse=0x3:0x133 / me=umh / subme=9 / psy=1 / psy_rd=1.00:0.00 / mixed_ref=1 / me_range=16 / chroma_me=1 / trellis=2 / 8x8dct=1 / cqm=0 / deadzone=21,11 / fast_pskip=0 / chroma_qp_offset=-2 / threads=24 / lookahead_threads=2 / sliced_threads=0 / nr=0 / decimate=0 / interlaced=0 / bluray_compat=0 / constrained_intra=0 / bframes=3 / b_pyramid=2 / b_adapt=2 / b_bias=0 / direct=3 / weightb=1 / open_gop=0 / weightp=2 / keyint=250 / keyint_min=24 / scenecut=40 / intra_refresh=0 / rc=crf / mbtree=0 / crf=16.5 / qcomp=0.60 / qpmin=0 / qpmax=69 / qpstep=4 / ip_ratio=1.40 / pb_ratio=1.30 / aq=3:0.70
Language                                 : English
Default                                  : Yes
Forced                                   : No
Color range                              : Limited
Matrix coefficients                      : BT.709

Audio
ID                                       : 2
Format                                   : AC-3
Format/Info                              : Audio Coding 3
Commercial name                          : Dolby Digital
Codec ID                                 : A_AC3
Duration                                 : 1 h 50 min
Bit rate mode                            : Constant
Bit rate                                 : 640 kb/s
Channel(s)                               : 6 channels
Channel layout                           : L R C LFE Ls Rs
Sampling rate                            : 48.0 kHz
Frame rate                               : 31.250 FPS (1536 SPF)
Compression mode                         : Lossy
Stream size                              : 504 MiB (12%)
Language                                 : English
Service kind                             : Complete Main
Default                                  : Yes
Forced                                   : No

Text #1
ID                                       : 3
Format                                   : UTF-8
Codec ID                                 : S_TEXT/UTF8
Codec ID/Info                            : UTF-8 Plain Text
Duration                                 : 1 h 26 min
Bit rate                                 : 1 b/s
Count of elements                        : 31
Stream size                              : 1.17 KiB (0%)
Title                                    : English (FORCED SRT)
Language                                 : English
Default                                  : Yes
Forced                                   : Yes

Text #2
ID                                       : 4
Format                                   : PGS
Muxing mode                              : zlib
Codec ID                                 : S_HDMV/PGS
Codec ID/Info                            : Picture based subtitle format used on BDs/HD-DVDs
Duration                                 : 1 h 26 min
Bit rate                                 : 1 261 b/s
Count of elements                        : 62
Stream size                              : 801 KiB (0%)
Title                                    : English (FORCED)
Language                                 : English
Default                                  : No
Forced                                   : No

Text #3
ID                                       : 5
Format                                   : PGS
Muxing mode                              : zlib
Codec ID                                 : S_HDMV/PGS
Codec ID/Info                            : Picture based subtitle format used on BDs/HD-DVDs
Duration                                 : 1 h 43 min
Bit rate                                 : 31.1 kb/s
Count of elements                        : 2246
Stream size                              : 23.1 MiB (1%)
Title                                    : German
Language                                 : German
Default                                  : No
Forced                                   : No

Text #4
ID                                       : 6
Format                                   : PGS
Muxing mode                              : zlib
Codec ID                                 : S_HDMV/PGS
Codec ID/Info                            : Picture based subtitle format used on BDs/HD-DVDs
Duration                                 : 23 min 23 s
Bit rate                                 : 676 b/s
Count of elements                        : 10
Stream size                              : 116 KiB (0%)
Title                                    : German (FORCED)
Language                                 : German
Default                                  : No
Forced                                   : No

Menu
00:00:00.000                             : en:Chapter 01
00:05:55.875                             : en:Chapter 02
00:13:04.708                             : en:Chapter 03
00:20:04.417                             : en:Chapter 04
00:28:09.500                             : en:Chapter 05
00:36:59.208                             : en:Chapter 06
00:43:39.792                             : en:Chapter 07
00:51:38.583                             : en:Chapter 08
00:58:36.917                             : en:Chapter 09
01:04:36.625                             : en:Chapter 10
01:10:26.500                             : en:Chapter 11
01:16:05.625                             : en:Chapter 12
01:26:34.875                             : en:Chapter 13
01:33:38.125                             : en:Chapter 14
01:37:58.792                             : en:Chapter 15
01:45:02.083                             : en:Chapter 16
[/url]



                                                                                                                                                                                                        
                                                                                                                                                                                                                                                                                                                                                                                                                                                                                                                                                                                                                                                                                                                                                                                                                                                        
5805ecb294a84c0d35cd20b15631964a.zip (41.03 KB, 下载次数: 0)

回复

使用道具 举报

小黑屋|百度云资源分享吧 ( 京ICP备15014721号-2 )

本网站所有资源来自网络,如无意中侵犯了您的权益,请发邮件至 [email protected],立即清除相关链接

GMT+8, 2021-3-3 08:07 , Processed in 0.148788 second(s), 24 queries .

Powered by Discuz! X3.2

© 2001-2013 Comsenz Inc.

快速回复 返回顶部 返回列表