百度云资源论坛

 找回密码
 立即注册

小丑娃娃 Clown.Doll.2019.720p.BluRay.x264-GETiT 1.80GB

[复制链接]
百度云资源 发表于 2021-2-18 08:14:49 | 显示全部楼层 |阅读模式
-->
帖子完整标题:小丑娃娃 Clown.Doll.2019.720p.BluRay.x264-GETiT 1.80GB


[/url]

◎译  名 小丑娃娃
◎片  名 Clown Doll
◎年  代 2019
◎产  地 英国
◎类  别 剧情
◎上映日期 2019-10-05(美国)
◎IMDb评分  3/10 from 107 users
◎IMDb链接  
◎豆瓣评分 /10 from 0 users
◎豆瓣链接 

◎标  签 惊悚 | 美国 | 恐怖 | 剧情 | 英国 | 美国电影 | 哇 | 2019

◎简  介

  After purchasing a doll, Lane's life takes a turn for the worst when close friends and family begin vanishing.
Video
ID                                       : 1
Format                                   : AVC
Format/Info                              : Advanced Video Codec
Format profile                           :
Format settings                          : CABAC / 8 Ref Frames
Format settings, CABAC                   : Yes
Format settings, Reference frames        : 8 frames
Codec ID                                 : V_MPEG4/ISO/AVC
Duration                                 : 1 h 33 min
Bit rate                                 : 2 108 kb/s
Width                                    : 1 280 pixels
Height                                   : 550 pixels
Display aspect ratio                     : 2.35:1
Frame rate mode                          : Constant
Frame rate                               : 24.000 FPS
Color space                              : YUV
Chroma subsampling                       : 4:2:0
Bit depth                                : 8 bits
Scan type                                : Progressive
Bits/(Pixel*Frame)                       : 0.125
Stream size                              : 1.38 GiB (77%)
Writing library                          : x264 core 161 r3048 b86ae3c
Encoding settings                        : cabac=1 / ref=8 / deblock=1:-3:-3 / analyse=0x3:0x133 / me=umh / subme=9 / psy=1 / psy_rd=1.00:0.00 / mixed_ref=1 / me_range=16 / chroma_me=1 / trellis=2 / 8x8dct=1 / cqm=0 / deadzone=21,11 / fast_pskip=1 / chroma_qp_offset=-2 / threads=12 / lookahead_threads=1 / sliced_threads=0 / nr=0 / decimate=1 / interlaced=0 / bluray_compat=0 / constrained_intra=0 / bframes=3 / b_pyramid=2 / b_adapt=2 / b_bias=0 / direct=3 / weightb=1 / open_gop=0 / weightp=2 / keyint=250 / keyint_min=24 / scenecut=40 / intra_refresh=0 / rc_lookahead=60 / rc=crf / mbtree=1 / crf=17.0 / qcomp=0.60 / qpmin=0 / qpmax=69 / qpstep=4 / ip_ratio=1.40 / aq=3:0.80
Language                                 : English
Default                                  : Yes
Forced                                   : No
Color range                              : Limited
Matrix coefficients                      : BT.709

Audio
ID                                       : 2
Format                                   : AC-3
Format/Info                              : Audio Coding 3
Commercial name                          : Dolby Digital
Codec ID                                 : A_AC3
Duration                                 : 1 h 33 min
Bit rate mode                            : Constant
Bit rate                                 : 640 kb/s
Channel(s)                               : 6 channels
Channel layout                           : L R C LFE Ls Rs
Sampling rate                            : 48.0 kHz
Frame rate                               : 31.250 FPS (1536 SPF)
Compression mode                         : Lossy
Stream size                              : 429 MiB (23%)
Title                                    : ac3
Language                                 : English
Service kind                             : Complete Main
Default                                  : Yes
Forced                                   : No

Menu
00:00:00.000                             : en:00:00:00.000
00:11:46.000                             : en:00:11:46.000
00:23:00.000                             : en:00:23:00.000
00:36:12.000                             : en:00:36:12.000
00:49:08.000                             : en:00:49:08.000
01:02:50.000                             : en:01:02:50.000
01:12:20.000                             : en:01:12:20.000
01:23:18.000                             : en:01:23:18.000
01:32:08.000                             : en:01:32:08.000
[/url]



                                                                                                                                                                                                        
                                                                                                                                                                                                                                                                                                                                                                                                                                                                                                                                                                                                                                                                                                                                                                                                                                                        
d1c7e7e3b06de49550e816b699c0da51.zip (18.68 KB, 下载次数: 0)

回复

使用道具 举报

小黑屋|百度云资源分享吧 ( 京ICP备15014721号-2 )

本网站所有资源来自网络,如无意中侵犯了您的权益,请发邮件至 [email protected],立即清除相关链接

GMT+8, 2021-3-3 07:50 , Processed in 0.100631 second(s), 24 queries .

Powered by Discuz! X3.2

© 2001-2013 Comsenz Inc.

快速回复 返回顶部 返回列表