百度云资源论坛

 找回密码
 立即注册

猎犬 The.Bloodhound.2020.720p.BluRay.x264-GAZER 1.48GB

[复制链接]
百度云资源 发表于 2021-3-26 11:23:02 | 显示全部楼层 |阅读模式
-->
帖子完整标题:猎犬 The.Bloodhound.2020.720p.BluRay.x264-GAZER 1.48GB



[/url]

◎译  名 猎犬
◎片  名 The Bloodhound
◎年  代 2020
◎产  地 美国
◎类  别 悬疑 / 恐怖
◎语  言 英语
◎上映日期 2020(美国)
◎IMDb评分  4.7/10 from 233 users
◎片  长 72分钟
◎导  演 帕特里克·皮卡德 Patrick Picard
◎编  剧 帕特里克·皮卡德 Patrick Picard
◎主  演 安娜丽丝·巴索 Annalise Basso
       连姆·艾肯 Liam Aiken
       麦克纳利·萨加尔 McNally Sagal
       乔·阿德勒 Joe Adler
       金姆利·史密斯 Kimleigh Smith

◎标  签 悬疑 | 美国电影 | 恐怖 | 2020 | cult | 美国 | 惊悚 | 心理

◎简  介

  拜访一位富裕而隐居的朋友,使一个年轻人陷入了恐惧和绝望的世界。
Video
ID                                       : 1
Format                                   : AVC
Format/Info                              : Advanced Video Codec
Format profile                           :
Format settings                          : CABAC / 9 Ref Frames
Format settings, CABAC                   : Yes
Format settings, Reference frames        : 9 frames
Codec ID                                 : V_MPEG4/ISO/AVC
Duration                                 : 1 h 11 min
Bit rate                                 : 2 188 kb/s
Width                                    : 1 190 pixels
Height                                   : 720 pixels
Display aspect ratio                     : 5:3
Frame rate mode                          : Constant
Frame rate                               : 23.976 (24000/1001/189150) FPS
Color space                              : YUV
Chroma subsampling                       : 4:2:0
Bit depth                                : 8 bits
Scan type                                : Progressive
Bits/(Pixel*Frame)                       : 0.107
Stream size                              : 1.09 GiB (74%)
Writing library                          : x264 core 161 r3048 b86ae3c
Encoding settings                        : cabac=1 / ref=9 / deblock=1:-3:-3 / analyse=0x3:0x133 / me=umh / subme=10 / psy=1 / psy_rd=1.20:0.00 / mixed_ref=1 / me_range=24 / chroma_me=1 / trellis=2 / 8x8dct=1 / cqm=0 / deadzone=21,11 / fast_pskip=0 / chroma_qp_offset=-2 / threads=22 / lookahead_threads=3 / sliced_threads=0 / nr=0 / decimate=0 / interlaced=0 / bluray_compat=0 / constrained_intra=0 / bframes=8 / b_pyramid=2 / b_adapt=2 / b_bias=0 / direct=3 / weightb=1 / open_gop=0 / weightp=2 / keyint=250 / keyint_min=23 / scenecut=40 / intra_refresh=0 / rc_lookahead=60 / rc=crf / mbtree=1 / crf=15.0 / qcomp=0.60 / qpmin=0 / qpmax=69 / qpstep=4 / ip_ratio=1.40 / aq=3:0.90
Default                                  : Yes
Forced                                   : No
Color range                              : Limited
Matrix coefficients                      : BT.709

Audio #1
ID                                       : 2
Format                                   : AC-3
Format/Info                              : Audio Coding 3
Commercial name                          : Dolby Digital
Codec ID                                 : A_AC3
Duration                                 : 1 h 11 min
Bit rate mode                            : Constant
Bit rate                                 : 640 kb/s
Channel(s)                               : 6 channels
Channel layout                           : L R C LFE Ls Rs
Sampling rate                            : 48.0 kHz
Frame rate                               : 31.250 FPS (1536 SPF)
Compression mode                         : Lossy
Stream size                              : 328 MiB (22%)
Language                                 : English
Service kind                             : Complete Main
Default                                  : Yes
Forced                                   : No

Audio #2
ID                                       : 3
Format                                   : AAC LC
Format/Info                              : Advanced Audio Codec Low Complexity
Codec ID                                 : A_AAC-2
Duration                                 : 1 h 11 min
Bit rate                                 : 123 kb/s
Channel(s)                               : 2 channels
Channel layout                           : L R
Sampling rate                            : 48.0 kHz
Frame rate                               : 46.875 FPS (1024 SPF)
Compression mode                         : Lossy
Delay relative to video                  : 20 ms
Stream size                              : 62.8 MiB (4%)
Title                                    : Commentary
Language                                 : English
Default                                  : No
Forced                                   : No

Text
ID                                       : 4
Format                                   : PGS
Muxing mode                              : zlib
Codec ID                                 : S_HDMV/PGS
Codec ID/Info                            : Picture based subtitle format used on BDs/HD-DVDs
Duration                                 : 1 h 8 min
Bit rate                                 : 20.5 kb/s
Count of elements                        : 1234
Stream size                              : 10.1 MiB (1%)
Title                                    : SDH
Language                                 : English
Default                                  : No
Forced                                   : No

Menu
00:00:00.000                             : en:Chapter 01
00:06:09.411                             : en:Chapter 02
00:13:15.503                             : en:Chapter 03
00:18:36.991                             : en:Chapter 04
00:23:13.392                             : en:Chapter 05
00:29:00.280                             : en:Chapter 06
00:36:00.158                             : en:Chapter 07
00:42:14.365                             : en:Chapter 08
00:47:25.051                             : en:Chapter 09
00:53:56.900                             : en:Chapter 10
00:59:29.566                             : en:Chapter 11
01:06:14.220                             : en:Chapter 12

[/url]



                                                                                                                                                                                                        
                                                                                                                                                                                                                                                                                                                                                                                                                                                                                                                                                                                                                                                                                                                                                                                                                                                        
06d1950aa25b66fa4f67688db6b667e4.zip (15.49 KB, 下载次数: 0)

回复

使用道具 举报

小黑屋|百度云资源分享吧 ( 京ICP备15014721号-2 )

本网站所有资源来自网络,如无意中侵犯了您的权益,请发邮件至 [email protected],立即清除相关链接

GMT+8, 2021-4-19 02:43 , Processed in 0.093364 second(s), 23 queries .

Powered by Discuz! X3.2

© 2001-2013 Comsenz Inc.

快速回复 返回顶部 返回列表