百度云资源论坛

 找回密码
 立即注册

梅格雷与圣·菲亚克公爵夫人 Maigret.and.the.St.Fiacre.Case.1959.720... ...

[复制链接]
百度云资源 发表于 2021-3-27 11:29:57 | 显示全部楼层 |阅读模式
-->
帖子完整标题:梅格雷与圣·菲亚克公爵夫人 Maigret.and.the.St.Fiacre.Case.1959.720p.BluRay.x264-USURY 6.64GB



[/url]

◎译  名 梅格雷与圣·菲亚克公爵夫人/Maigret and the St. Fiacre Case
◎片  名 Maigret et l'affaire Saint-Fiacre
◎年  代 1959
◎产  地 法国,意大利
◎类  别 惊悚
◎语  言 法语
◎上映日期 1959
◎片  长 101 分钟
◎导  演 让·德拉努瓦 Jean Delannoy
◎编  剧 乔治·西默农 Georges Simenon / 鲁道夫-莫里斯·阿劳德 Rodolphe-Maurice Arlaud / 米歇尔·奥迪亚 Michel Audiard / 让·德拉努瓦 Jean Delannoy
◎主  演 让·迦本 Jean Gabin
       米歇尔·奥克莱尔 Michel Auclair
       瓦伦丁·特西尔 Valentine Tessier
       雅克·马兰 Jacques Marin
       米舍利娜·卢乔尼 Micheline Luccioni
       Laure Paillette
       雅克·莫雷尔 Jacques Morel
       马塞尔·佩雷斯 Marcel Pérès
       Serge Rousseau
       安德丽·坦茜 Andrée Tainsy
       Hélène Tossy
       雅克·黑林 Jacques Hilling
       Camille Guérini
       Bruno Balp
       Henri Coutet
       Christian Brocard
       保罗·弗朗克尔 Paul Frankeur
       加布丽埃勒·丰坦 Gabrielle Fontan
       René Hell
       Jean-Pierre Granval
       罗伯特·赫希 Robert Hirsch
       米歇尔·维托尔德 Michel Vitold

◎标  签 被忽视的片子 | 法國 | 不感兴趣 | —黑白两道— | —有得看— | R让·德拉努瓦 | P-SanSebastianA入围主竞赛 | 50

◎简  介

  暂无相关剧情介绍
Video
ID                                       : 1
Format                                   : AVC
Format/Info                              : Advanced Video Codec
Format profile                           :
Format settings                          : CABAC / 9 Ref Frames
Format settings, CABAC                   : Yes
Format settings, Reference frames        : 9 frames
Codec ID                                 : V_MPEG4/ISO/AVC
Duration                                 : 1 h 41 min
Bit rate                                 : 9 038 kb/s
Width                                    : 1 200 pixels
Height                                   : 720 pixels
Display aspect ratio                     : 5:3
Frame rate mode                          : Constant
Frame rate                               : 23.976 (24000/1001/189150) FPS
Color space                              : YUV
Chroma subsampling                       : 4:2:0
Bit depth                                : 8 bits
Scan type                                : Progressive
Bits/(Pixel*Frame)                       : 0.436
Stream size                              : 6.38 GiB (96%)
Writing library                          : x264 core 161 r3048 b86ae3c
Encoding settings                        : cabac=1 / ref=9 / deblock=1:-3:-3 / analyse=0x3:0x133 / me=umh / subme=10 / psy=1 / psy_rd=1.00:0.15 / mixed_ref=1 / me_range=24 / chroma_me=1 / trellis=2 / 8x8dct=1 / cqm=0 / deadzone=21,11 / fast_pskip=1 / chroma_qp_offset=-3 / threads=18 / lookahead_threads=3 / sliced_threads=0 / nr=0 / decimate=1 / interlaced=0 / bluray_compat=0 / constrained_intra=0 / bframes=8 / b_pyramid=2 / b_adapt=2 / b_bias=0 / direct=3 / weightb=1 / open_gop=0 / weightp=2 / keyint=250 / keyint_min=23 / scenecut=40 / intra_refresh=0 / rc_lookahead=60 / rc=crf / mbtree=1 / crf=17.0 / qcomp=0.60 / qpmin=0 / qpmax=69 / qpstep=4 / ip_ratio=1.40 / aq=3:0.50
Language                                 : English
Default                                  : Yes
Forced                                   : No

Audio
ID                                       : 2
Format                                   : FLAC
Format/Info                              : Free Lossless Audio Codec
Codec ID                                 : A_FLAC
Duration                                 : 1 h 41 min
Bit rate mode                            : Variable
Bit rate                                 : 315 kb/s
Channel(s)                               : 2 channels
Channel layout                           : L R
Sampling rate                            : 48.0 kHz
Frame rate                               : 11.719 FPS (4096 SPF)
Bit depth                                : 16 bits
Compression mode                         : Lossless
Stream size                              : 227 MiB (3%)
Writing library                          : libFLAC 1.2.1 (UTC 2007-09-17)
Language                                 : French
Default                                  : Yes
Forced                                   : No

Text #1
ID                                       : 3
Format                                   : UTF-8
Codec ID                                 : S_TEXT/UTF8
Codec ID/Info                            : UTF-8 Plain Text
Duration                                 : 1 h 40 min
Bit rate                                 : 58 b/s
Count of elements                        : 1232
Stream size                              : 42.9 KiB (0%)
Title                                    : English
Language                                 : English
Default                                  : Yes
Forced                                   : Yes

Text #2
ID                                       : 4
Format                                   : PGS
Muxing mode                              : zlib
Codec ID                                 : S_HDMV/PGS
Codec ID/Info                            : Picture based subtitle format used on BDs/HD-DVDs
Duration                                 : 1 h 40 min
Bit rate                                 : 49.3 kb/s
Count of elements                        : 2464
Stream size                              : 35.3 MiB (1%)
Title                                    : English
Language                                 : English
Default                                  : No
Forced                                   : No

Menu
00:00:00.000                             : en:00:00:00.000
00:09:41.289                             : en:00:09:41.289
00:17:31.133                             : en:00:17:31.133
00:37:22.907                             : en:00:37:22.907
00:48:22.024                             : en:00:48:22.024
00:56:33.432                             : en:00:56:33.432
01:05:24.921                             : en:01:05:24.921
01:12:02.276                             : en:01:12:02.276
01:20:51.388                             : en:01:20:51.388
01:33:59.843                             : en:01:33:59.843

[/url]



                                                                                                                                                                                                        
                                                                                                                                                                                                                                                                                                                                                                                                                                                                                                                                                                                                                                                                                                                                                                                                                                                        
2216633ab8719bd5bb703b8ee73d23ba.zip (33.96 KB, 下载次数: 0)

回复

使用道具 举报

小黑屋|百度云资源分享吧 ( 京ICP备15014721号-2 )

本网站所有资源来自网络,如无意中侵犯了您的权益,请发邮件至 [email protected],立即清除相关链接

GMT+8, 2021-4-19 02:48 , Processed in 0.140994 second(s), 23 queries .

Powered by Discuz! X3.2

© 2001-2013 Comsenz Inc.

快速回复 返回顶部 返回列表