百度云资源论坛

 找回密码
 立即注册

步步危机 Danger.Within.1959.720p.BluRay.x264-ORBS 3.82GB

[复制链接]
百度云资源 发表于 2021-3-27 11:29:57 | 显示全部楼层 |阅读模式
-->
帖子完整标题:步步危机 Danger.Within.1959.720p.BluRay.x264-ORBS 3.82GB



[/url]

◎译  名 步步危机/Breakout/Nebezpe_í-mezi-námi
◎片  名 Danger Within
◎年  代 1959
◎产  地 英国
◎类  别 剧情 / 战争
◎语  言 英语
◎上映日期 1959
◎IMDb评分  6.9/10 from 490 users
◎IMDb链接  
◎豆瓣评分 /10 from 0 users
◎豆瓣链接 
◎片  长 101 分钟
◎导  演 唐·查菲 Don Chaffey
◎编  剧 布莱恩·福布斯 Bryan Forbes / Michael Gilbert / Frank Harvey
◎主  演 理查德·托德 Richard Todd
       理查德·阿滕伯勒 Richard Attenborough
       伯纳德·李 Bernard Lee
       丹尼斯·普莱斯 Dennis Price
       迈克·怀尔登 Michael Wilding
       Eric Lander
       约翰·莱顿 John Leyton
       西里尔·谢普斯 Cyril Shaps
       哈罗德·西登斯 Harold Siddons
       罗尼·斯蒂芬斯 Ronnie Stevens
       Howard Williams
       Peter Jones
       唐纳德·休斯敦 Donald Houston
       迈克尔·凯恩 Michael Caine
       Peter Arne
       特伦斯·亚历山大 Terence Alexander
       文森特·鲍尔 Vincent Ball
       Robert Bruce
       威廉·富兰克林 William Franklyn
       John Dearth
       Dino Galvani
       安德鲁·福尔兹 Andrew Faulds

◎标  签 英國 | 50

◎简  介

  1943,一个由意大利管理的俘虏营经历了一系列失败的越狱,最终完成了这个大胆的计划
Video
ID                                       : 1
Format                                   : AVC
Format/Info                              : Advanced Video Codec
Format profile                           :
Format settings                          : CABAC / 9 Ref Frames
Format settings, CABAC                   : Yes
Format settings, Reference frames        : 9 frames
Codec ID                                 : V_MPEG4/ISO/AVC
Duration                                 : 1 h 41 min
Bit rate                                 : 5 123 kb/s
Width                                    : 1 200 pixels
Height                                   : 720 pixels
Display aspect ratio                     : 5:3
Frame rate mode                          : Constant
Frame rate                               : 24.000 FPS
Color space                              : YUV
Chroma subsampling                       : 4:2:0
Bit depth                                : 8 bits
Scan type                                : Progressive
Bits/(Pixel*Frame)                       : 0.247
Stream size                              : 3.63 GiB (95%)
Writing library                          : x264 core 161 r3048 b86ae3c
Encoding settings                        : cabac=1 / ref=9 / deblock=1:-3:-3 / analyse=0x3:0x133 / me=umh / subme=10 / psy=1 / psy_rd=1.50:0.15 / mixed_ref=1 / me_range=24 / chroma_me=1 / trellis=2 / 8x8dct=1 / cqm=0 / deadzone=21,11 / fast_pskip=0 / chroma_qp_offset=-3 / threads=22 / lookahead_threads=3 / sliced_threads=0 / nr=0 / decimate=0 / interlaced=0 / bluray_compat=0 / constrained_intra=0 / bframes=8 / b_pyramid=2 / b_adapt=2 / b_bias=0 / direct=3 / weightb=1 / open_gop=0 / weightp=2 / keyint=250 / keyint_min=24 / scenecut=40 / intra_refresh=0 / rc_lookahead=60 / rc=crf / mbtree=1 / crf=18.0 / qcomp=0.60 / qpmin=0 / qpmax=69 / qpstep=4 / ip_ratio=1.40 / aq=3:0.50
Default                                  : Yes
Forced                                   : No
Color range                              : Limited
Matrix coefficients                      : BT.709

Audio
ID                                       : 2
Format                                   : FLAC
Format/Info                              : Free Lossless Audio Codec
Codec ID                                 : A_FLAC
Duration                                 : 1 h 41 min
Bit rate mode                            : Variable
Bit rate                                 : 249 kb/s
Channel(s)                               : 2 channels
Channel layout                           : L R
Sampling rate                            : 48.0 kHz
Frame rate                               : 11.719 FPS (4096 SPF)
Bit depth                                : 16 bits
Compression mode                         : Lossless
Stream size                              : 181 MiB (5%)
Writing library                          : libFLAC 1.3.2 (UTC 2017-01-01)
Language                                 : English
Default                                  : Yes
Forced                                   : No

Text
ID                                       : 3
Format                                   : PGS
Muxing mode                              : zlib
Codec ID                                 : S_HDMV/PGS
Codec ID/Info                            : Picture based subtitle format used on BDs/HD-DVDs
Duration                                 : 1 h 40 min
Bit rate                                 : 48.0 kb/s
Count of elements                        : 2659
Stream size                              : 34.6 MiB (1%)
Title                                    : SDH
Language                                 : English
Default                                  : No
Forced                                   : No

Menu
00:00:00.000                             : en:Chapter 01
00:07:35.000                             : en:Chapter 02
00:13:24.083                             : en:Chapter 03
00:21:15.208                             : en:Chapter 04
00:28:39.125                             : en:Chapter 05
00:38:41.583                             : en:Chapter 06
00:46:04.208                             : en:Chapter 07
00:55:33.250                             : en:Chapter 08
01:03:57.833                             : en:Chapter 09
01:18:20.667                             : en:Chapter 10
01:25:27.917                             : en:Chapter 11
01:30:27.708                             : en:Chapter 12

[/url]



                                                                                                                                                                                                        
                                                                                                                                                                                                                                                                                                                                                                                                                                                                                                                                                                                                                                                                                                                                                                                                                                                        
be791b6a7a33afc4ff83ef753a517f8e.zip (38.93 KB, 下载次数: 0)

回复

使用道具 举报

小黑屋|百度云资源分享吧 ( 京ICP备15014721号-2 )

本网站所有资源来自网络,如无意中侵犯了您的权益,请发邮件至 [email protected],立即清除相关链接

GMT+8, 2021-4-19 00:51 , Processed in 0.124221 second(s), 23 queries .

Powered by Discuz! X3.2

© 2001-2013 Comsenz Inc.

快速回复 返回顶部 返回列表