百度云资源论坛

 找回密码
 立即注册

冒险的代价 The.Prize.of.Peril.1983.720p.BluRay.x264-GUACAMOLE 4.70GB

[复制链接]
百度云资源 发表于 2021-3-27 11:29:57 | 显示全部楼层 |阅读模式
-->
帖子完整标题:冒险的代价 The.Prize.of.Peril.1983.720p.BluRay.x264-GUACAMOLE 4.70GB



[/url]

◎译  名 冒险的代价/The Prize of Peril/死亡游戏
◎片  名 Le prix du danger
◎年  代 1983
◎产  地 法国,南斯拉夫
◎类  别 剧情 / 动作 / 科幻 / 惊悚
◎语  言 法语
◎上映日期 1983-01-26
◎IMDb评分  6.7/10 from 942 users
◎IMDb链接  
◎豆瓣评分 7.9/10 from 392 users
◎豆瓣链接 
◎片  长 100 分钟
◎导  演 伊夫·布瓦塞 Yves Boisset
◎编  剧 罗伯特·谢克利 Robert Sheckley / 伊夫·布瓦塞 Yves Boisset / Jean Curtelin
◎主  演 Catherine Lachens
       Zlata Numanagic
       让·鲁泽里 Jean Rougerie
       Jovan Ristic
       Vladan Zivkovic
       亨利-雅克·于埃 Henri-Jacques Huet
       安德烈亚·费雷奥尔 Andréa Ferréol
       让-克洛德·德雷菲斯 Jean-Claude Dreyfus
       加布丽·拉佐 Gabrielle Lazure
       玛丽-弗朗丝·皮西尔 Marie-France Pisier
       马尔科·尼科利奇 Marko Nikolic
       布律诺·克雷梅 Bruno Cremer
       热拉尔·朗万 Gérard Lanvin
       米歇尔·皮科利 Michel Piccoli
       乔榛 Zhen Qiao

◎标  签 法国 | 法国电影 | 科幻 | 暴力 | 动作 | 悬疑 | 1983 | 冒险的代价

◎简  介

  法国影片《冒险的代价》主要描写了某电视台为了吸引观众,提高收视率,别出心裁的搞了一个“有奖冒险”节目,以高达两百万美元的奖金来引诱人们用自己宝贵的生命去做为赌注。失业青年弗朗索瓦不愿再过着贫穷的生活,不顾女友拉萨的反对,执意报名参加了“有奖冒险”。他幸运的在初赛“空中摆擂”中获胜,获得了作为“逃亡者”参赛的资格。在节目中他多次获得了陌生人的帮助,才暂时逃避了五名追杀者的追捕。但当他从节目制片罗朗斯的口中得知那些陌生人都是电台有意安排为的只是能使节目能播放4小时,他最终将会被追杀者杀死的时候,他终于明白“有奖冒险”只是个骗局。为了向观众们公布事实的真相,弗朗索瓦在杀死了几名追杀者后,持枪来到了电视直播现场,但等待着他的是被送入疯人院的结局。
Video
ID                                       : 1
Format                                   : AVC
Format/Info                              : Advanced Video Codec
Format profile                           :
Format settings                          : CABAC / 8 Ref Frames
Format settings, CABAC                   : Yes
Format settings, Reference frames        : 8 frames
Codec ID                                 : V_MPEG4/ISO/AVC
Duration                                 : 1 h 38 min
Bit rate                                 : 6 496 kb/s
Width                                    : 1 192 pixels
Height                                   : 720 pixels
Display aspect ratio                     : 5:3
Frame rate mode                          : Constant
Frame rate                               : 23.976 (24000/1001/189150) FPS
Color space                              : YUV
Chroma subsampling                       : 4:2:0
Bit depth                                : 8 bits
Scan type                                : Progressive
Bits/(Pixel*Frame)                       : 0.316
Stream size                              : 4.46 GiB (95%)
Writing library                          : x264 core 161 r3048 b86ae3c
Encoding settings                        : cabac=1 / ref=8 / deblock=1:-3:-3 / analyse=0x3:0x133 / me=umh / subme=9 / psy=1 / psy_rd=1.00:0.00 / mixed_ref=1 / me_range=16 / chroma_me=1 / trellis=2 / 8x8dct=1 / cqm=0 / deadzone=21,11 / fast_pskip=0 / chroma_qp_offset=-2 / threads=22 / lookahead_threads=1 / sliced_threads=0 / nr=0 / decimate=1 / interlaced=0 / bluray_compat=0 / constrained_intra=0 / bframes=3 / b_pyramid=2 / b_adapt=2 / b_bias=0 / direct=3 / weightb=1 / open_gop=0 / weightp=2 / keyint=250 / keyint_min=23 / scenecut=40 / intra_refresh=0 / rc_lookahead=60 / rc=crf / mbtree=1 / crf=19.0 / qcomp=0.60 / qpmin=0 / qpmax=69 / qpstep=4 / ip_ratio=1.40 / aq=3:0.60
Default                                  : Yes
Forced                                   : No
Color range                              : Limited
Matrix coefficients                      : BT.709

Audio
ID                                       : 2
Format                                   : FLAC
Format/Info                              : Free Lossless Audio Codec
Codec ID                                 : A_FLAC
Duration                                 : 1 h 38 min
Bit rate mode                            : Variable
Bit rate                                 : 315 kb/s
Channel(s)                               : 2 channels
Channel layout                           : L R
Sampling rate                            : 48.0 kHz
Frame rate                               : 11.719 FPS (4096 SPF)
Bit depth                                : 16 bits
Compression mode                         : Lossless
Stream size                              : 222 MiB (5%)
Writing library                          : libFLAC 1.2.1 (UTC 2007-09-17)
Language                                 : French
Default                                  : No
Forced                                   : No

Text #1
ID                                       : 3
Format                                   : UTF-8
Codec ID                                 : S_TEXT/UTF8
Codec ID/Info                            : UTF-8 Plain Text
Duration                                 : 1 h 35 min
Bit rate                                 : 62 b/s
Count of elements                        : 1031
Stream size                              : 43.9 KiB (0%)
Language                                 : English
Default                                  : Yes
Forced                                   : Yes

Text #2
ID                                       : 4
Format                                   : PGS
Muxing mode                              : zlib
Codec ID                                 : S_HDMV/PGS
Codec ID/Info                            : Picture based subtitle format used on BDs/HD-DVDs
Duration                                 : 1 h 35 min
Bit rate                                 : 31.3 kb/s
Count of elements                        : 1645
Stream size                              : 21.5 MiB (0%)
Title                                    : Vobsubs
Language                                 : English
Default                                  : No
Forced                                   : No

Text #3
ID                                       : 5
Format                                   : PGS
Muxing mode                              : zlib
Codec ID                                 : S_HDMV/PGS
Codec ID/Info                            : Picture based subtitle format used on BDs/HD-DVDs
Duration                                 : 1 h 36 min
Bit rate                                 : 46.5 kb/s
Count of elements                        : 2494
Stream size                              : 32.0 MiB (1%)
Title                                    : Vobsubs
Language                                 : German
Default                                  : No
Forced                                   : No

Menu
00:00:00.000                             : en:00:00:00.000
00:10:13.238                             : en:00:10:13.238
00:18:13.884                             : en:00:18:13.884
00:25:21.478                             : en:00:25:21.478
00:32:03.463                             : en:00:32:03.463
00:37:46.890                             : en:00:37:46.890
00:45:09.582                             : en:00:45:09.582
00:52:03.996                             : en:00:52:03.996
01:00:13.985                             : en:01:00:13.985
01:07:03.561                             : en:01:07:03.561
01:16:32.463                             : en:01:16:32.463
01:26:44.950                             : en:01:26:44.950

[/url]



                                                                                                                                                                                                        
                                                                                                                                                                                                                                                                                                                                                                                                                                                                                                                                                                                                                                                                                                                                                                                                                                                        
02c506b1b47671d44882f930995062de.zip (47.69 KB, 下载次数: 0)

回复

使用道具 举报

小黑屋|百度云资源分享吧 ( 京ICP备15014721号-2 )

本网站所有资源来自网络,如无意中侵犯了您的权益,请发邮件至 [email protected],立即清除相关链接

GMT+8, 2021-4-19 01:10 , Processed in 0.106137 second(s), 23 queries .

Powered by Discuz! X3.2

© 2001-2013 Comsenz Inc.

快速回复 返回顶部 返回列表