百度云资源论坛

 找回密码
 立即注册

南方之子 Son.of.the.South.2020.720p.BluRay.x264.DTS-MT 3.62GB

[复制链接]
百度云资源 发表于 2021-3-27 11:29:57 | 显示全部楼层 |阅读模式
-->
帖子完整标题:南方之子 Son.of.the.South.2020.720p.BluRay.x264.DTS-MT 3.62GB



[/url]

◎译  名 南方之子
◎片  名 Son of the South
◎年  代 2020
◎产  地 美国
◎类  别 剧情 / 传记
◎语  言 英语
◎上映日期 2020-08-26(美国)
◎IMDb评分  5.4/10 from 428 users
◎IMDb链接  
◎豆瓣评分 /10 from 0 users
◎豆瓣链接 
◎导  演 巴里·亚历山大·布朗 Barry Alexander Brown
◎编  剧 巴里·亚历山大·布朗 Barry Alexander Brown
◎主  演 露西·海尔 Lucy Hale
       朱莉娅·奥蒙德 Julia Ormond
       卢卡斯·提尔 Lucas Till
       布莱恩·丹内利 Brian Dennehy
       莱克斯·斯科特·戴维斯 Lex Scott Davis
       塞德里克·凯尔斯 Cedric the Entertainer
       沙米尔·安德森 Shamier Anderson
       迈克尔·艾伦·米利甘 Michael Aaron Milligan
       迈克尔·希罗 Michael Sirow

◎标  签 美国电影 | 美国 | 电影 | 改编 | 卢卡斯·提尔 | 剧情 | 传记 | 2020s

◎简  介

  基于Bob Zellner的自传《The Wrong Side of Murder Creek: A White Southerner in the Freedom Movement》,Zellner出生于阿拉巴马州,是某个三K党成员的孙子,1961年,他被卷入民权运动的中心。
  
  提尔饰演Zellner,海尔饰演Zellner的大学女友Carol Ann,丹内利饰演Zellner的爷爷,福曼饰演Zellner的爸爸。
Video
ID                                       : 1
Format                                   : AVC
Format/Info                              : Advanced Video Codec
Format profile                           :
Format settings                          : CABAC / 12 Ref Frames
Format settings, CABAC                   : Yes
Format settings, Reference frames        : 12 frames
Codec ID                                 : V_MPEG4/ISO/AVC
Duration                                 : 1 h 45 min
Bit rate                                 : 3 395 kb/s
Width                                    : 1 280 pixels
Height                                   : 536 pixels
Display aspect ratio                     : 2.40:1
Frame rate mode                          : Constant
Frame rate                               : 23.976 (24000/1001/189150) FPS
Color space                              : YUV
Chroma subsampling                       : 4:2:0
Bit depth                                : 8 bits
Scan type                                : Progressive
Bits/(Pixel*Frame)                       : 0.206
Stream size                              : 2.51 GiB (69%)
Writing library                          : x264 core 157 r2938 2b00a84  Mod
Encoding settings                        : cabac=1 / ref=12 / deblock=1:-3:-3 / analyse=0x3:0x133 / me=umh / subme=10 / psy=1 / psy_rd=1.05:0.00 / mixed_ref=1 / me_range=32 / chroma_me=1 / trellis=2 / 8x8dct=1 / cqm=0 / deadzone=21,11 / fast_pskip=0 / chroma_qp_offset=-2 / threads=12 / lookahead_threads=2 / sliced_threads=0 / nr=0 / decimate=0 / interlaced=0 / bluray_compat=0 / constrained_intra=0 / bframes=8 / b_pyramid=2 / b_adapt=2 / b_bias=0 / direct=3 / weightb=1 / open_gop=0 / weightp=2 / keyint=250 / keyint_min=24 / scenecut=40 / intra_refresh=0 / rc_lookahead=250 / rc=crf / mbtree=0 / crf=16.8 / qcomp=0.60 / qpmin=0 / qpmax=69 / qpstep=4 / vbv_maxrate=62500 / vbv_bufsize=78125 / crf_max=0.0 / nal_hrd=none / filler=0 / ip_ratio=1.30 / pb_ratio=1.20 / aq=3:0.80
Language                                 : English
Default                                  : Yes
Forced                                   : No
Color range                              : Limited
Color primaries                          : BT.709
Matrix coefficients                      : BT.709

Audio
ID                                       : 2
Format                                   : DTS
Format/Info                              : Digital Theater Systems
Codec ID                                 : A_DTS
Duration                                 : 1 h 45 min
Bit rate mode                            : Constant
Bit rate                                 : 1 509 kb/s
Channel(s)                               : 6 channels
Channel layout                           : C L R Ls Rs LFE
Sampling rate                            : 48.0 kHz
Frame rate                               : 93.750 FPS (512 SPF)
Bit depth                                : 16 bits
Compression mode                         : Lossy
Stream size                              : 1.11 GiB (31%)
Language                                 : English
Default                                  : Yes
Forced                                   : No

Text
ID                                       : 3
Format                                   : UTF-8
Codec ID                                 : S_TEXT/UTF8
Codec ID/Info                            : UTF-8 Plain Text
Duration                                 : 1 h 40 min
Bit rate                                 : 82 b/s
Count of elements                        : 1879
Stream size                              : 61.2 KiB (0%)
Language                                 : English
Default                                  : Yes
Forced                                   : No

Menu
00:00:00.000                             : en:Chapter 01
00:18:43.914                             : en:Chapter 02
00:40:10.325                             : en:Chapter 03
00:58:29.131                             : en:Chapter 04
01:15:50.504                             : en:Chapter 05
01:33:28.478                             : en:Chapter 06

[/url]

[/url]



                                                                                                                                                                                                        
                                                                                                                                                                                                                                                                                                                                                                                                                                                                                                                                                                                                                                                                                                                                                                                                                                                        
22985bd8ca79eb7be171d72d246d5978.zip (36.84 KB, 下载次数: 0)

回复

使用道具 举报

小黑屋|百度云资源分享吧 ( 京ICP备15014721号-2 )

本网站所有资源来自网络,如无意中侵犯了您的权益,请发邮件至 [email protected],立即清除相关链接

GMT+8, 2021-4-19 01:35 , Processed in 0.101476 second(s), 23 queries .

Powered by Discuz! X3.2

© 2001-2013 Comsenz Inc.

快速回复 返回顶部 返回列表