百度云资源论坛

 找回密码
 立即注册

阿雅与魔女 Earwig.and.the.Witch.2020.DUBBED.720p.BluRay.x264.DTS-MT 2.47GB

[复制链接]
百度云资源 发表于 2021-3-27 11:29:57 | 显示全部楼层 |阅读模式
-->
帖子完整标题:阿雅与魔女 Earwig.and.the.Witch.2020.DUBBED.720p.BluRay.x264.DTS-MT 2.47GB



[/url]

◎译  名 阿雅与魔女/Aya to Majo/Earwig and the Witch/安雅与魔女
◎片  名 アーヤと魔女
◎年  代 2020
◎产  地 日本
◎类  别 动画 / 奇幻
◎语  言 日语
◎上映日期 2020-10-18(卢米埃尔电影节) / 2020-12-30(日本) / 2021-02-03(美国) / 2021-02-05(美国网络)
◎IMDb评分  4.7/10 from 1476 users
◎IMDb链接  
◎豆瓣评分 5.4/10 from 950 users
◎豆瓣链接 
◎片  长 82分钟
◎导  演 宫崎吾朗 Goro Miyazaki
◎编  剧 黛安娜·温恩·琼斯 Diana Wynne Jones
◎主  演 平泽宏宏路 Kokoro Hirasawa
       寺岛忍 Shinobu Terajima
       丰川悦司 Etsushi Toyokawa
       滨田岳 Gaku Hamada
       丹·史蒂文斯 Dan Stevens
       理查德·E·格兰特 Richard E. Grant
       凯茜·马斯格雷夫斯 Kacey Musgraves

◎标  签 吉卜力 | 动画 | 日本 | 2020 | 剧场版 | 戛纳电影节 | 奇幻 | 魔幻

◎简  介

  《阿雅与魔女》是改编自戴安娜·韦恩·琼斯的同名奇幻小说,故事描述不知道自己是魔女小孩的阿雅,在某一天被奇妙的家庭所收养,并且与坏心的魔女共同展开了生活,属于阿雅的奇幻故事就此展开。

◎获奖情况

  第73届戛纳电影节 ?(2020)
  动画片(提名)
Video
ID                                       : 1
Format                                   : AVC
Format/Info                              : Advanced Video Codec
Format profile                           :
Format settings                          : CABAC / 9 Ref Frames
Format settings, CABAC                   : Yes
Format settings, Reference frames        : 9 frames
Codec ID                                 : V_MPEG4/ISO/AVC
Duration                                 : 1 h 22 min
Bit rate                                 : 2 756 kb/s
Width                                    : 1 280 pixels
Height                                   : 692 pixels
Display aspect ratio                     : 1.85:1
Frame rate mode                          : Constant
Frame rate                               : 23.976 (24000/1001/189150) FPS
Color space                              : YUV
Chroma subsampling                       : 4:2:0
Bit depth                                : 8 bits
Scan type                                : Progressive
Bits/(Pixel*Frame)                       : 0.130
Stream size                              : 1.59 GiB (65%)
Writing library                          : x264 core 157 r2938 2b00a84  Mod
Encoding settings                        : cabac=1 / ref=9 / deblock=1:-3:-3 / analyse=0x3:0x133 / me=umh / subme=10 / psy=1 / psy_rd=1.05:0.00 / mixed_ref=1 / me_range=32 / chroma_me=1 / trellis=2 / 8x8dct=1 / cqm=0 / deadzone=21,11 / fast_pskip=0 / chroma_qp_offset=-2 / threads=12 / lookahead_threads=2 / sliced_threads=0 / nr=0 / decimate=0 / interlaced=0 / bluray_compat=0 / constrained_intra=0 / bframes=8 / b_pyramid=2 / b_adapt=2 / b_bias=0 / direct=3 / weightb=1 / open_gop=0 / weightp=2 / keyint=250 / keyint_min=24 / scenecut=40 / intra_refresh=0 / rc_lookahead=250 / rc=crf / mbtree=0 / crf=16.8 / qcomp=0.60 / qpmin=0 / qpmax=69 / qpstep=4 / vbv_maxrate=62500 / vbv_bufsize=78125 / crf_max=0.0 / nal_hrd=none / filler=0 / ip_ratio=1.30 / pb_ratio=1.20 / aq=3:0.80
Language                                 : English
Default                                  : Yes
Forced                                   : No
Color range                              : Limited
Color primaries                          : BT.709
Matrix coefficients                      : BT.709

Audio
ID                                       : 2
Format                                   : DTS
Format/Info                              : Digital Theater Systems
Codec ID                                 : A_DTS
Duration                                 : 1 h 22 min
Bit rate mode                            : Constant
Bit rate                                 : 1 509 kb/s
Channel(s)                               : 6 channels
Channel layout                           : C L R Ls Rs LFE
Sampling rate                            : 48.0 kHz
Frame rate                               : 93.750 FPS (512 SPF)
Bit depth                                : 24 bits
Compression mode                         : Lossy
Stream size                              : 893 MiB (35%)
Language                                 : English
Default                                  : Yes
Forced                                   : No

Text
ID                                       : 3
Format                                   : UTF-8
Codec ID                                 : S_TEXT/UTF8
Codec ID/Info                            : UTF-8 Plain Text
Duration                                 : 1 h 21 min
Bit rate                                 : 54 b/s
Count of elements                        : 1109
Stream size                              : 32.9 KiB (0%)
Title                                    : SRT
Language                                 : English
Default                                  : Yes
Forced                                   : No

Menu
00:00:00.000                             : en:Chapter 01
00:05:54.354                             : en:Chapter 02
00:11:10.587                             : en:Chapter 03
00:14:51.933                             : en:Chapter 04
00:19:31.754                             : en:Chapter 05
00:22:15.251                             : en:Chapter 06
00:27:30.065                             : en:Chapter 07
00:32:21.898                             : en:Chapter 08
00:37:39.382                             : en:Chapter 09
00:43:01.078                             : en:Chapter 10
00:49:54.950                             : en:Chapter 11
00:57:27.235                             : en:Chapter 12
01:00:35.590                             : en:Chapter 13
01:07:31.297                             : en:Chapter 14
01:12:42.858                             : en:Chapter 15
01:18:41.884                             : en:Chapter 16

[/url]

[/url]



                                                                                                                                                                                                        
                                                                                                                                                                                                                                                                                                                                                                                                                                                                                                                                                                                                                                                                                                                                                                                                                                                        
2364d60e4f4c65c15aca2b26dd3e78fb.zip (25.33 KB, 下载次数: 0)

回复

使用道具 举报

小黑屋|百度云资源分享吧 ( 京ICP备15014721号-2 )

本网站所有资源来自网络,如无意中侵犯了您的权益,请发邮件至 [email protected],立即清除相关链接

GMT+8, 2021-4-19 01:47 , Processed in 0.098538 second(s), 23 queries .

Powered by Discuz! X3.2

© 2001-2013 Comsenz Inc.

快速回复 返回顶部 返回列表