百度云资源论坛

 找回密码
 立即注册

巴布与斯塔尔的维斯塔德尔玛之旅 Barb.and.Star.Go.to.Vista.Del.M...

[复制链接]
百度云资源 发表于 2021-3-27 11:29:57 | 显示全部楼层 |阅读模式
-->
帖子完整标题:巴布与斯塔尔的维斯塔德尔玛之旅 Barb.and.Star.Go.to.Vista.Del.Mar.2021.720p.BluRay.x264.DTS-MT 4.81GB



[/url]

◎译  名 巴布与斯塔尔的维斯塔德尔玛之旅
◎片  名 Barb and Star go to Vista Del Mar
◎年  代 2021
◎产  地 美国
◎类  别 喜剧
◎语  言 英语
◎上映日期 2021-02-12(美国网络)
◎IMDb评分  6.5/10 from 4682 users
◎IMDb链接  
◎豆瓣评分 6.1/10 from 196 users
◎豆瓣链接 
◎导  演 乔什·戈林鲍姆 Josh Greenbaum
◎编  剧 安妮·玛莫罗 Annie Mumolo / 克里斯汀·韦格 Kristen Wiig
◎主  演 克里斯汀·韦格 Kristen Wiig
       安妮·玛莫罗 Annie Mumolo
       詹米·多南 Jamie Dornan
       小达蒙·韦恩斯 Damon Wayans Jr.
       迈克尔·希区柯克 Michael Hitchcock
       科瓦米·帕特森 Kwame Patterson
       温迪·麦克伦登-考威 Wendi McLendon-Covey
       Mark Jonathan Davis
       汤姆·伦克 Tom Lenk
       汉克·罗杰森 Hank Rogerson
       福琼·费姆斯特 Fortune Feimster
       瓦妮莎·贝尔 Vanessa Bayer
       菲利丝·史密斯 Phyllis Smith
       罗斯·阿卜杜 Rose Abdoo
       娜塔莎·埃斯卡 Natasha Esca
       丸山凯伦 Karen Maruyama
       麦克·米勒 Mike Miller
       Adrian Makala
       罗布·卡瓦佐斯 Rob Cavazos

◎标  签 喜剧 | 美国 | 2021 | 美国电影 | 剧情 | 克里斯汀·韦格 | KristenWiig | 2020

◎简  介

  故事讲述两名好友第一次离开中西部的小镇去弗罗里达度假。在度假时,她们被卷入了一场坏人要杀死镇上每一个人的恐怖阴谋中。

◎获奖情况

  第23届美国服装设计工会奖 ?(2021)
  现代电影最佳服装设计(提名) 特雷斯·吉吉·菲尔德
Video
ID                                       : 1
Format                                   : AVC
Format/Info                              : Advanced Video Codec
Format profile                           :
Format settings                          : CABAC / 12 Ref Frames
Format settings, CABAC                   : Yes
Format settings, Reference frames        : 12 frames
Codec ID                                 : V_MPEG4/ISO/AVC
Duration                                 : 1 h 46 min
Bit rate                                 : 4 920 kb/s
Width                                    : 1 280 pixels
Height                                   : 536 pixels
Display aspect ratio                     : 2.40:1
Frame rate mode                          : Constant
Frame rate                               : 23.976 (24000/1001/189150) FPS
Color space                              : YUV
Chroma subsampling                       : 4:2:0
Bit depth                                : 8 bits
Scan type                                : Progressive
Bits/(Pixel*Frame)                       : 0.299
Stream size                              : 3.68 GiB (76%)
Writing library                          : x264 core 157 r2938 2b00a84  Mod
Encoding settings                        : cabac=1 / ref=12 / deblock=1:-3:-3 / analyse=0x3:0x133 / me=umh / subme=10 / psy=1 / psy_rd=1.05:0.00 / mixed_ref=1 / me_range=32 / chroma_me=1 / trellis=2 / 8x8dct=1 / cqm=0 / deadzone=21,11 / fast_pskip=0 / chroma_qp_offset=-2 / threads=12 / lookahead_threads=2 / sliced_threads=0 / nr=0 / decimate=0 / interlaced=0 / bluray_compat=0 / constrained_intra=0 / bframes=8 / b_pyramid=2 / b_adapt=2 / b_bias=0 / direct=3 / weightb=1 / open_gop=0 / weightp=2 / keyint=250 / keyint_min=24 / scenecut=40 / intra_refresh=0 / rc_lookahead=250 / rc=crf / mbtree=0 / crf=16.8 / qcomp=0.60 / qpmin=0 / qpmax=69 / qpstep=4 / vbv_maxrate=62500 / vbv_bufsize=78125 / crf_max=0.0 / nal_hrd=none / filler=0 / ip_ratio=1.30 / pb_ratio=1.20 / aq=3:0.80
Language                                 : English
Default                                  : Yes
Forced                                   : No
Color range                              : Limited
Color primaries                          : BT.709
Matrix coefficients                      : BT.709

Audio
ID                                       : 2
Format                                   : DTS
Format/Info                              : Digital Theater Systems
Codec ID                                 : A_DTS
Duration                                 : 1 h 46 min
Bit rate mode                            : Constant
Bit rate                                 : 1 509 kb/s
Channel(s)                               : 6 channels
Channel layout                           : C L R Ls Rs LFE
Sampling rate                            : 48.0 kHz
Frame rate                               : 93.750 FPS (512 SPF)
Bit depth                                : 24 bits
Compression mode                         : Lossy
Stream size                              : 1.13 GiB (23%)
Language                                 : English
Default                                  : Yes
Forced                                   : No

Text
ID                                       : 3
Format                                   : UTF-8
Codec ID                                 : S_TEXT/UTF8
Codec ID/Info                            : UTF-8 Plain Text
Duration                                 : 1 h 46 min
Bit rate                                 : 79 b/s
Count of elements                        : 1863
Stream size                              : 61.5 KiB (0%)
Title                                    : SRT
Language                                 : English
Default                                  : Yes
Forced                                   : No

Menu
00:00:00.000                             : en:Chapter 01
00:06:15.292                             : en:Chapter 02
00:12:01.471                             : en:Chapter 03
00:19:09.899                             : en:Chapter 04
00:27:20.931                             : en:Chapter 05
00:31:18.376                             : en:Chapter 06
00:37:24.659                             : en:Chapter 07
00:43:34.654                             : en:Chapter 08
00:49:27.590                             : en:Chapter 09
00:54:51.163                             : en:Chapter 10
01:01:17.966                             : en:Chapter 11
01:10:17.505                             : en:Chapter 12
01:17:10.751                             : en:Chapter 13
01:24:55.090                             : en:Chapter 14
01:29:12.722                             : en:Chapter 15
01:34:18.319                             : en:Chapter 16

[/url]

[/url]

[/url]



                                                                                                                                                                                                        
                                                                                                                                                                                                                                                                                                                                                                                                                                                                                                                                                                                                                                                                                                                                                                                                                                                        
6cd4bf81193365f3e8e235fb20adcdd9.zip (48.77 KB, 下载次数: 0)

回复

使用道具 举报

小黑屋|百度云资源分享吧 ( 京ICP备15014721号-2 )

本网站所有资源来自网络,如无意中侵犯了您的权益,请发邮件至 [email protected],立即清除相关链接

GMT+8, 2021-4-19 01:57 , Processed in 0.096350 second(s), 23 queries .

Powered by Discuz! X3.2

© 2001-2013 Comsenz Inc.

快速回复 返回顶部 返回列表