百度云资源论坛

 找回密码
 立即注册

陷阱之中 In.The.Trap.2019.720p.BluRay.x264-FREEMAN 1.52GB

[复制链接]
百度云资源 发表于 2021-3-28 11:32:38 | 显示全部楼层 |阅读模式
-->
帖子完整标题:陷阱之中 In.The.Trap.2019.720p.BluRay.x264-FREEMAN 1.52GB



[/url]

◎译  名 陷阱之中
◎片  名 In the Trap
◎年  代 2019
◎产  地 意大利
◎类  别 惊悚 / 恐怖
◎语  言 英语
◎上映日期 2019-10-31(意大利)
◎IMDb评分  3.9/10 from 424 users
◎IMDb链接  
◎豆瓣评分 4.3/10 from 256 users
◎豆瓣链接 
◎片  长 90分钟
◎主  演 大卫·拜利 David Bailie
       罗伯特·奈尔恩 Robert Nairne
       宝拉·波腾皮 Paola Bontempi
       德莱娜·基德 Delena Kidd

◎标  签 恐怖 | 意大利 | 惊悚 | 意大利电影 | 2019 | 驱魔 | 电影 | 美影

◎简  介

  菲利普,一个孤独的校对者,被困在他的公寓里,不敢离开,被一个未知的邪恶势力折磨,在过去的两年里一直囚禁其中
Video
ID                                       : 1
Format                                   : AVC
Format/Info                              : Advanced Video Codec
Format profile                           :
Format settings                          : CABAC / 8 Ref Frames
Format settings, CABAC                   : Yes
Format settings, Reference frames        : 8 frames
Codec ID                                 : V_MPEG4/ISO/AVC
Duration                                 : 1 h 33 min
Bit rate                                 : 1 695 kb/s
Width                                    : 1 280 pixels
Height                                   : 570 pixels
Display aspect ratio                     : 2.25:1
Frame rate mode                          : Constant
Frame rate                               : 24.000 FPS
Color space                              : YUV
Chroma subsampling                       : 4:2:0
Bit depth                                : 8 bits
Scan type                                : Progressive
Bits/(Pixel*Frame)                       : 0.097
Stream size                              : 1.10 GiB (73%)
Writing library                          : x264 core 161 r3048 b86ae3c
Encoding settings                        : cabac=1 / ref=8 / deblock=1:-3:-3 / analyse=0x3:0x133 / me=umh / subme=9 / psy=1 / psy_rd=1.00:0.00 / mixed_ref=1 / me_range=16 / chroma_me=1 / trellis=2 / 8x8dct=1 / cqm=0 / deadzone=21,11 / fast_pskip=1 / chroma_qp_offset=-2 / threads=12 / lookahead_threads=1 / sliced_threads=0 / nr=0 / decimate=1 / interlaced=0 / bluray_compat=0 / constrained_intra=0 / bframes=3 / b_pyramid=2 / b_adapt=2 / b_bias=0 / direct=3 / weightb=1 / open_gop=0 / weightp=2 / keyint=250 / keyint_min=24 / scenecut=40 / intra_refresh=0 / rc_lookahead=60 / rc=crf / mbtree=1 / crf=17.0 / qcomp=0.60 / qpmin=0 / qpmax=69 / qpstep=4 / ip_ratio=1.40 / aq=3:0.80
Language                                 : English
Default                                  : Yes
Forced                                   : No
Color range                              : Limited
Matrix coefficients                      : BT.709

Audio
ID                                       : 2
Format                                   : AC-3
Format/Info                              : Audio Coding 3
Commercial name                          : Dolby Digital
Codec ID                                 : A_AC3
Duration                                 : 1 h 33 min
Bit rate mode                            : Constant
Bit rate                                 : 640 kb/s
Channel(s)                               : 6 channels
Channel layout                           : L R C LFE Ls Rs
Sampling rate                            : 48.0 kHz
Frame rate                               : 31.250 FPS (1536 SPF)
Compression mode                         : Lossy
Stream size                              : 427 MiB (27%)
Title                                    : ac3
Language                                 : English
Service kind                             : Complete Main
Default                                  : Yes
Forced                                   : No

Menu
00:00:00.000                             : en:00:00:00.000
00:06:42.542                             : en:00:06:42.542
00:13:37.458                             : en:00:13:37.458
00:20:05.542                             : en:00:20:05.542
00:28:12.792                             : en:00:28:12.792
00:38:03.167                             : en:00:38:03.167
00:46:33.583                             : en:00:46:33.583
00:53:01.875                             : en:00:53:01.875
01:00:58.042                             : en:01:00:58.042
01:10:42.875                             : en:01:10:42.875
01:20:30.167                             : en:01:20:30.167
01:27:36.458                             : en:01:27:36.458

[/url]



                                                                                                                                                                                                        
                                                                                                                                                                                                                                                                                                                                                                                                                                                                                                                                                                                                                                                                                                                                                                                                                                                        
892a06cce6e15e21c33f75acbd5cd07c.zip (15.87 KB, 下载次数: 0)

回复

使用道具 举报

小黑屋|百度云资源分享吧 ( 京ICP备15014721号-2 )

本网站所有资源来自网络,如无意中侵犯了您的权益,请发邮件至 [email protected],立即清除相关链接

GMT+8, 2021-4-19 02:37 , Processed in 0.085592 second(s), 23 queries .

Powered by Discuz! X3.2

© 2001-2013 Comsenz Inc.

快速回复 返回顶部 返回列表