百度云资源论坛

 找回密码
 立即注册

龙骑士/银龙出任务 Dragon.Rider.2020.3D.1080p.BluRay.x264-PussyFoot 4....

[复制链接]
百度云资源 发表于 2021-3-29 21:36:00 | 显示全部楼层 |阅读模式
-->
帖子完整标题:龙骑士/银龙出任务 Dragon.Rider.2020.3D.1080p.BluRay.x264-PussyFoot 4.98GB



[/url]

◎译  名 龙骑士/银龙出任务(台)
◎片  名 Dragon Rider
◎年  代 2020
◎产  地 德国
◎类  别 动画 / 冒险
◎语  言 英语
◎上映日期 2020-10-15(德国) / 2021-02-12(英国)
◎IMDb评分  5.5/10 from 448 users
◎IMDb链接  
◎豆瓣评分 /10 from 0 users
◎豆瓣链接 
◎片  长 100分钟
◎导  演 托默·埃希德 Tomer Eshed
◎编  剧 柯奈莉亚·冯克 Cornelia Funke / 约翰·R·史密斯 John R. Smith
◎主  演 托马斯·布罗迪-桑斯特 Thomas Brodie-Sangster
       菲丽希缇·琼斯 Felicity Jones
       弗莱迪·海默 Freddie Highmore
       帕特里克·斯图尔特 Patrick Stewart
       桑吉夫·巴哈斯卡 Sanjeev Bhaskar
       侬索·阿诺斯 Nonso Anozie
       梅拉·沙尔 Meera Syal
       亚力克斯·诺顿 Alex Norton
       斯蒂芬·霍根 Stephen Hogan
       威廉·范德普耶 William Vanderpuye
       尤恩 贝利 Ewan Bailey

◎标  签 桑总 | 海默 | 弗莱迪海默 | 动画 | 英国 | 魔幻 | 奇幻 | 儿童

◎简  介

  菲丽希缇·琼斯、托马斯·布罗迪-桑斯特、帕特里克·斯图尔特、弗莱迪·海默等将为动画电影[龙骑士](Dragon Rider,暂译)献声。该片将由托马·艾许执导,根据科妮莉亚·凡克同名畅销小说改编,约翰·史密斯操刀剧本。影片讲述了年轻银龙Firedrake、山神Sorrel、孤儿Ben,在喜马拉雅山脉寻找着天堂边缘,它可以为银龙的亲属们提供避难所,因为它们原本的山谷因一座水坝而无法居住了。本片将于2019年秋天上映。
Video
ID                                       : 1
Format                                   : AVC
Format/Info                              : Advanced Video Codec
Format profile                           :
Format settings                          : CABAC / 5 Ref Frames
Format settings, CABAC                   : Yes
Format settings, Reference frames        : 5 frames
Codec ID                                 : V_MPEG4/ISO/AVC
Duration                                 : 1 h 31 min
Bit rate                                 : 5 670 kb/s
Width                                    : 1 920 pixels
Height                                   : 804 pixels
Display aspect ratio                     : 2.40:1
Frame rate mode                          : Constant
Frame rate                               : 23.976 FPS
Color space                              : YUV
Chroma subsampling                       : 4:2:0
Bit depth                                : 8 bits
Scan type                                : Progressive
Bits/(Pixel*Frame)                       : 0.153
Stream size                              : 3.62 GiB (73%)
Writing library                          : x264 core 161 r3043 59c0609
Encoding settings                        : cabac=1 / ref=5 / deblock=1:-3:-3 / analyse=0x3:0x133 / me=umh / subme=8 / psy=1 / psy_rd=1.00:0.00 / mixed_ref=1 / me_range=16 / chroma_me=1 / trellis=2 / 8x8dct=1 / cqm=0 / deadzone=21,11 / fast_pskip=0 / chroma_qp_offset=-2 / threads=12 / lookahead_threads=2 / sliced_threads=0 / nr=0 / decimate=1 / interlaced=0 / bluray_compat=0 / constrained_intra=0 / bframes=3 / b_pyramid=2 / b_adapt=1 / b_bias=0 / direct=3 / weightb=1 / open_gop=0 / weightp=2 / keyint=250 / keyint_min=23 / scenecut=40 / intra_refresh=0 / rc_lookahead=50 / rc=crf / mbtree=1 / crf=17.0 / qcomp=0.60 / qpmin=0 / qpmax=69 / qpstep=4 / ip_ratio=1.40 / aq=1:1.00
Language                                 : English
Default                                  : Yes
Forced                                   : No

Audio
ID                                       : 2
Format                                   : DTS XBR
Format/Info                              : Digital Theater Systems
Commercial name                          : DTS-HD High Resolution Audio
Codec ID                                 : A_DTS
Duration                                 : 1 h 31 min
Bit rate mode                            : Constant
Bit rate                                 : 2 046 kb/s
Channel(s)                               : 6 channels
Channel layout                           : C L R Ls Rs LFE
Sampling rate                            : 48.0 kHz
Frame rate                               : 93.750 FPS (512 SPF)
Bit depth                                : 24 bits
Compression mode                         : Lossy
Stream size                              : 1.31 GiB (26%)
Language                                 : English
Default                                  : Yes
Forced                                   : No

Text #1
ID                                       : 3
Format                                   : PGS
Muxing mode                              : zlib
Codec ID                                 : S_HDMV/PGS
Codec ID/Info                            : Picture based subtitle format used on BDs/HD-DVDs
Duration                                 : 1 h 30 min
Bit rate                                 : 126 kb/s
Count of elements                        : 3234
Stream size                              : 81.4 MiB (2%)
Language                                 : English
Default                                  : No
Forced                                   : No

Text #2
ID                                       : 4
Format                                   : PGS
Muxing mode                              : zlib
Codec ID                                 : S_HDMV/PGS
Codec ID/Info                            : Picture based subtitle format used on BDs/HD-DVDs
Duration                                 : 1 h 30 min
Bit rate                                 : 119 kb/s
Count of elements                        : 2282
Stream size                              : 77.4 MiB (2%)
Language                                 : German
Default                                  : No
Forced                                   : No

Menu
00:00:00.000                             : en:Kapitel 01
00:05:00.175                             : en:Kapitel 02
00:10:01.559                             : en:Kapitel 03
00:17:30.424                             : en:Kapitel 04
00:22:46.574                             : en:Kapitel 05
00:27:14.132                             : en:Kapitel 06
00:34:10.840                             : en:Kapitel 07
00:41:48.005                             : en:Kapitel 08
00:46:18.109                             : en:Kapitel 09
00:53:55.065                             : en:Kapitel 10
01:01:47.287                             : en:Kapitel 11
01:08:19.095                             : en:Kapitel 12
01:14:47.066                             : en:Kapitel 13
01:18:31.290                             : en:Kapitel 14
01:24:46.873                             : en:Kapitel 15

[/url]



                                                                                                                                                                                                        
                                                                                                                                                                                                                                                                                                                                                                                                                                                                                                                                                                                                                                                                                                                                                                                                                                                        
89ad2d12ea1c6a46e92efc8d5bd7f0ad.zip (50.54 KB, 下载次数: 0)

回复

使用道具 举报

小黑屋|百度云资源分享吧 ( 京ICP备15014721号-2 )

本网站所有资源来自网络,如无意中侵犯了您的权益,请发邮件至 [email protected],立即清除相关链接

GMT+8, 2021-4-19 10:03 , Processed in 0.115752 second(s), 23 queries .

Powered by Discuz! X3.2

© 2001-2013 Comsenz Inc.

快速回复 返回顶部 返回列表