百度云资源论坛

 找回密码
 立即注册

我们别生气 Lets.Not.Get.Angry.1966.720p.BluRay.x264-JustWatch 4.72GB

[复制链接]
百度云资源 发表于 2021-3-30 11:39:06 | 显示全部楼层 |阅读模式
-->
帖子完整标题:我们别生气 Lets.Not.Get.Angry.1966.720p.BluRay.x264-JustWatch 4.72GB



[/url]

◎译  名 我们别生气/Let's Not Get Angry/莫动怒
◎片  名 Ne nous fachons pas
◎年  代 1966
◎产  地 法国
◎类  别 喜剧 / 犯罪
◎语  言 法语
◎上映日期 1966-04-20
◎IMDb评分  6.8/10 from 1135 users
◎IMDb链接  
◎豆瓣评分 /10 from 0 users
◎豆瓣链接 
◎片  长 100 分钟
◎导  演 乔治·洛特内 Georges Lautner
◎编  剧 米歇尔·奥迪亚 Michel Audiard / 马塞尔·朱利安 Marcel Jullian / 让·马尔桑 Jean Marsan / 乔治·洛特内 Georges Lautner
◎主  演 利诺·文图拉 Lino Ventura
       米蕾叶·达尔克 Mireille Darc
       让·勒费弗尔 Jean Lefebvre
       Sylvia Sorrente
       塞尔日·索维翁 Serge Sauvion
       Jacques Richard
       France Rumilly
       安德烈·普斯 André Pousse
       Tommy Duggan
       罗贝尔·达尔邦 Robert Dalban
       迈克尔·康斯坦丁 Michel Constantin
       菲利普·卡斯泰利 Philippe Castelli

◎标  签 被忽视的片子 | 法国 | 喜剧 | France | 1960s

◎简  介

  Antoine Beretto s'est rangé du monde des truands et vit sur la C?te d'Azur où il a une boutique de location de bateaux à moteur. Deux anciens complices lui achètent un canot et le paient avec une créance. Antoine reprend du service afin de récupérer son argent
Video
ID                                       : 1
Format                                   : AVC
Format/Info                              : Advanced Video Codec
Format profile                           :
Format settings                          : CABAC / 8 Ref Frames
Format settings, CABAC                   : Yes
Format settings, Reference frames        : 8 frames
Codec ID                                 : V_MPEG4/ISO/AVC
Duration                                 : 1 h 40 min
Bit rate                                 : 6 436 kb/s
Width                                    : 1 280 pixels
Height                                   : 544 pixels
Display aspect ratio                     : 2.35:1
Frame rate mode                          : Constant
Frame rate                               : 23.976 (24000/1001/189150) FPS
Color space                              : YUV
Chroma subsampling                       : 4:2:0
Bit depth                                : 8 bits
Scan type                                : Progressive
Bits/(Pixel*Frame)                       : 0.386
Stream size                              : 4.50 GiB (95%)
Writing library                          : x264 core 161 r3048 b86ae3c
Encoding settings                        : cabac=1 / ref=8 / deblock=1:-3:-3 / analyse=0x3:0x133 / me=umh / subme=9 / psy=1 / psy_rd=1.00:0.00 / mixed_ref=1 / me_range=16 / chroma_me=1 / trellis=2 / 8x8dct=1 / cqm=0 / deadzone=21,11 / fast_pskip=0 / chroma_qp_offset=-2 / threads=17 / lookahead_threads=1 / sliced_threads=0 / nr=0 / decimate=1 / interlaced=0 / bluray_compat=0 / constrained_intra=0 / bframes=3 / b_pyramid=2 / b_adapt=2 / b_bias=0 / direct=3 / weightb=1 / open_gop=0 / weightp=2 / keyint=250 / keyint_min=23 / scenecut=40 / intra_refresh=0 / rc_lookahead=60 / rc=crf / mbtree=1 / crf=17.0 / qcomp=0.60 / qpmin=0 / qpmax=69 / qpstep=4 / ip_ratio=1.40 / aq=1:1.00
Language                                 : English
Default                                  : Yes
Forced                                   : No

Audio
ID                                       : 2
Format                                   : FLAC
Format/Info                              : Free Lossless Audio Codec
Codec ID                                 : A_FLAC
Duration                                 : 1 h 40 min
Bit rate mode                            : Variable
Bit rate                                 : 304 kb/s
Channel(s)                               : 2 channels
Channel layout                           : L R
Sampling rate                            : 48.0 kHz
Frame rate                               : 11.719 FPS (4096 SPF)
Bit depth                                : 16 bits
Compression mode                         : Lossless
Stream size                              : 218 MiB (4%)
Writing library                          : libFLAC 1.3.2 (UTC 2017-01-01)
Language                                 : French
Default                                  : Yes
Forced                                   : No

Text #1
ID                                       : 3
Format                                   : UTF-8
Codec ID                                 : S_TEXT/UTF8
Codec ID/Info                            : UTF-8 Plain Text
Duration                                 : 1 h 38 min
Bit rate                                 : 53 b/s
Count of elements                        : 1044
Stream size                              : 38.7 KiB (0%)
Language                                 : English
Default                                  : Yes
Forced                                   : No

Text #2
ID                                       : 4
Format                                   : PGS
Muxing mode                              : zlib
Codec ID                                 : S_HDMV/PGS
Codec ID/Info                            : Picture based subtitle format used on BDs/HD-DVDs
Duration                                 : 1 h 39 min
Bit rate                                 : 18.3 kb/s
Count of elements                        : 2089
Stream size                              : 13.0 MiB (0%)
Language                                 : English
Default                                  : No
Forced                                   : No

Text #3
ID                                       : 5
Format                                   : PGS
Muxing mode                              : zlib
Codec ID                                 : S_HDMV/PGS
Codec ID/Info                            : Picture based subtitle format used on BDs/HD-DVDs
Duration                                 : 1 h 39 min
Bit rate                                 : 21.0 kb/s
Count of elements                        : 2089
Stream size                              : 14.9 MiB (0%)
Language                                 : German
Default                                  : No
Forced                                   : No

Menu
00:00:00.000                             : en:Chapter 01
00:01:57.492                             : en:Chapter 02
00:08:00.647                             : en:Chapter 03
00:18:14.343                             : en:Chapter 04
00:29:27.266                             : en:Chapter 05
00:38:43.238                             : en:Chapter 06
00:48:16.769                             : en:Chapter 07
01:00:03.100                             : en:Chapter 08
01:09:56.275                             : en:Chapter 09
01:22:20.144                             : en:Chapter 10




                                                                                                                                                                                                        
                                                                                                                                                                                                                                                                                                                                                                                                                                                                                                                                                                                                                                                                                                                                                                                                                                                        
f7173376fca52624e2463a5a23e6155b.zip (47.94 KB, 下载次数: 0)

回复

使用道具 举报

小黑屋|百度云资源分享吧 ( 京ICP备15014721号-2 )

本网站所有资源来自网络,如无意中侵犯了您的权益,请发邮件至 [email protected],立即清除相关链接

GMT+8, 2021-4-19 01:36 , Processed in 0.106417 second(s), 23 queries .

Powered by Discuz! X3.2

© 2001-2013 Comsenz Inc.

快速回复 返回顶部 返回列表