百度云资源论坛

 找回密码
 立即注册

少年侦探 The.Kid.Detective.2020.720p.BluRay.x264.DTS-FGT 4.88GB

[复制链接]
百度云资源 发表于 2021-4-1 11:45:38 | 显示全部楼层 |阅读模式
-->
帖子完整标题:少年侦探 The.Kid.Detective.2020.720p.BluRay.x264.DTS-FGT 4.88GB



[/url]

◎译  名 少年侦探
◎片  名 The Kid Detective
◎年  代 2020
◎产  地 加拿大
◎类  别 剧情 / 喜剧
◎语  言 英语
◎上映日期 2020-10-16(美国)
◎IMDb评分  7/10 from 6713 users
◎IMDb链接  
◎豆瓣评分 7.1/10 from 1574 users
◎豆瓣链接 
◎片  长 97分钟
◎导  演 埃文·摩根 Evan Morgan
◎编  剧 埃文·摩根 Evan Morgan
◎主  演 亚当·布罗迪 Adam Brody
       苏菲·奈丽丝 Sophie Nélisse
       莎拉·萨瑟兰 Sarah Sutherland
       杰西·诺亚·格鲁曼 Jesse Noah Gruman
       温迪·古逊 Wendy Crewson
       乔纳森·惠塔克 Jonathan Whittaker
       彼得·麦克内尔 Peter MacNeill
       丽莎·张 Lisa Truong
       索菲娅·韦伯斯特 Sophia Webster
       达拉斯·爱德华兹 Dallas Edwards
       马泰 Tzi Ma
       伊萨克·克拉顿 Isaac Kragten
       阿玛莉亚·威廉姆森 Amalia Williamson  
       莎伦·克兰德尔 Sharon Crandall
       毛里斯·迪恩·温特 Maurice Dean Wint

◎标  签 悬疑 | 剧情 | 加拿大 | 喜剧 | 2020 | 人性 | 美国 | 电影

◎简  介

  曾经享誉盛名的儿童侦探(现年32岁)继续解决宿醉和顾影自怜之间的琐碎谜团。 直到一个天真的客户将他的第一个“成人”案带给他——找出谁残酷地谋杀了她的男朋友。
Video
ID                                       : 1
Format                                   : AVC
Format/Info                              : Advanced Video Codec
Format profile                           :
Format settings                          : CABAC / 4 Ref Frames
Format settings, CABAC                   : Yes
Format settings, Reference frames        : 4 frames
Codec ID                                 : V_MPEG4/ISO/AVC
Duration                                 : 1 h 39 min
Bit rate                                 : 5 500 kb/s
Width                                    : 1 280 pixels
Height                                   : 536 pixels
Display aspect ratio                     : 2.40:1
Frame rate mode                          : Constant
Frame rate                               : 23.976 (24000/1001/189150) FPS
Color space                              : YUV
Chroma subsampling                       : 4:2:0
Bit depth                                : 8 bits
Scan type                                : Progressive
Bits/(Pixel*Frame)                       : 0.334
Stream size                              : 3.83 GiB (78%)
Writing library                          : x264 core 148 r2795M aaa9aa8
Encoding settings                        : cabac=1 / ref=4 / deblock=1:-2:-2 / analyse=0x3:0x113 / me=umh / subme=9 / psy=1 / psy_rd=1.00:0.15 / mixed_ref=1 / me_range=16 / chroma_me=1 / trellis=2 / 8x8dct=1 / cqm=0 / deadzone=21,11 / fast_pskip=1 / chroma_qp_offset=-3 / threads=24 / lookahead_threads=3 / sliced_threads=0 / nr=0 / decimate=1 / interlaced=0 / bluray_compat=0 / constrained_intra=0 / bframes=3 / b_pyramid=2 / b_adapt=1 / b_bias=0 / direct=3 / weightb=1 / open_gop=0 / weightp=2 / keyint=250 / keyint_min=25 / scenecut=40 / intra_refresh=0 / rc_lookahead=50 / rc=2pass / mbtree=1 / bitrate=5500 / ratetol=1.0 / qcomp=0.60 / qpmin=0 / qpmax=69 / qpstep=4 / cplxblur=20.0 / qblur=0.5 / vbv_maxrate=31250 / vbv_bufsize=31250 / nal_hrd=none / filler=0 / ip_ratio=1.40 / aq=1:1.00
Language                                 : English
Default                                  : Yes
Forced                                   : No

Audio
ID                                       : 2
ID in the original source medium         : 4352 (0x1100)
Format                                   : DTS
Format/Info                              : Digital Theater Systems
Codec ID                                 : A_DTS
Duration                                 : 1 h 39 min
Bit rate mode                            : Constant
Bit rate                                 : 1 509 kb/s
Channel(s)                               : 6 channels
Channel layout                           : C L R Ls Rs LFE
Sampling rate                            : 48.0 kHz
Frame rate                               : 93.750 FPS (512 SPF)
Bit depth                                : 24 bits
Compression mode                         : Lossy
Stream size                              : 1.05 GiB (22%)
Title                                    : DTS 5.1
Language                                 : English
Default                                  : No
Forced                                   : No
Original source medium                   : Blu-ray

Text
ID                                       : 3
Format                                   : UTF-8
Codec ID                                 : S_TEXT/UTF8
Codec ID/Info                            : UTF-8 Plain Text
Duration                                 : 1 h 32 min
Bit rate                                 : 47 b/s
Count of elements                        : 969
Stream size                              : 32.0 KiB (0%)
Title                                    : English-SRT
Language                                 : English
Default                                  : Yes
Forced                                   : No

Menu
00:00:00.000                             : en:Chapter 01
00:09:05.294                             : en:Chapter 02
00:13:43.572                             : en:Chapter 03
00:21:12.062                             : en:Chapter 04
00:25:50.090                             : en:Chapter 05
00:32:44.462                             : en:Chapter 06
00:41:05.796                             : en:Chapter 07
00:51:01.892                             : en:Chapter 08
00:56:21.044                             : en:Chapter 09
01:01:43.991                             : en:Chapter 10
01:04:43.588                             : en:Chapter 11
01:08:18.928                             : en:Chapter 12
01:13:31.615                             : en:Chapter 13
01:18:15.357                             : en:Chapter 14
01:27:03.801                             : en:Chapter 15
01:29:50.301                             : en:Chapter 16
01:35:06.283                             : en:Chapter 17

[/url]

[/url]

[/url]



                                                                                                                                                                                                        
                                                                                                                                                                                                                                                                                                                                                                                                                                                                                                                                                                                                                                                                                                                                                                                                                                                        
1df8ac3dd66f14a0412ce51e2bdbcb9c.zip (49.48 KB, 下载次数: 0)

回复

使用道具 举报

小黑屋|百度云资源分享吧 ( 京ICP备15014721号-2 )

本网站所有资源来自网络,如无意中侵犯了您的权益,请发邮件至 [email protected],立即清除相关链接

GMT+8, 2021-4-19 01:40 , Processed in 0.104698 second(s), 23 queries .

Powered by Discuz! X3.2

© 2001-2013 Comsenz Inc.

快速回复 返回顶部 返回列表