百度云资源论坛

 找回密码
 立即注册

空难生还乐队/街头幸存者:乐队坠机真实事件 Street.Survivors.The.True.Story.of.the. ...

[复制链接]
百度云资源 发表于 2021-4-2 11:49:15 | 显示全部楼层 |阅读模式
-->
帖子完整标题:空难生还乐队/街头幸存者:乐队坠机真实事件 Street.Survivors.The.True.Story.of.the.Lynyrd.Skynyrd.Plane.Crash.2020.720p.BluRay.x264-GUACAMOLE 3.52GB



[/url]

◎译  名 空难生还乐队/街头幸存者:乐队坠机真实事件
◎片  名 Street Survivors: The True Story of the Lynyrd Skynyrd Plane Crash
◎年  代 2020
◎产  地 美国
◎类  别 传记
◎语  言 英语
◎上映日期 2020-06-30(美国)
◎IMDb评分  5.1/10 from 247 users
◎IMDb链接  
◎豆瓣评分 /10 from 0 users
◎豆瓣链接 
◎片  长 90分钟
◎导  演 贾瑞德·科恩 Jared Cohn
◎编  剧 贾瑞德·科恩 Jared Cohn
◎主  演 莎拉·弗伦奇 Sarah French
       安东尼·詹森 Anthony Jensen
       David Banks
       安东尼·特拉伊纳 Anthony Traina
       布瑞尔特·杰克布森 Brett Jacobsen
       凯文·M·霍顿 Kevin M. Horton
       凯斯·拉特利夫 Keith Sutliff
       桑蒂尔·亚历克西斯·瓦奎兹 Shantiel Alexis Vazquez
       Bill Devlin
       Andrea Vicunia

◎标  签 [歐美]

◎简  介

  The movie centers on drummer Artimus Pyle's experience as a band member in Lynyrd Skynyrd and the tragically fateful day the plane they rented that crashed in the late evening in the swamps of Gillsburg ,MS on October 20th ,1977 and took the lives of singer Ronnie Van Zant , guitarist Steve Gaines ,his sister back up singer Cassie Gaines , road manager Dean Kilpatrick and the two pilots . This movie focuses on the hours leading up to and the day of the event and the aftermath.
Video
ID                                       : 1
Format                                   : AVC
Format/Info                              : Advanced Video Codec
Format profile                           :
Format settings                          : CABAC / 8 Ref Frames
Format settings, CABAC                   : Yes
Format settings, Reference frames        : 8 frames
Codec ID                                 : V_MPEG4/ISO/AVC
Duration                                 : 1 h 32 min
Bit rate                                 : 4 797 kb/s
Width                                    : 1 280 pixels
Height                                   : 482 pixels
Display aspect ratio                     : 2.656
Frame rate mode                          : Constant
Frame rate                               : 23.976 (24000/1001/189150) FPS
Color space                              : YUV
Chroma subsampling                       : 4:2:0
Bit depth                                : 8 bits
Scan type                                : Progressive
Bits/(Pixel*Frame)                       : 0.324
Stream size                              : 3.10 GiB (88%)
Writing library                          : x264 core 161 r3048 b86ae3c
Encoding settings                        : cabac=1 / ref=8 / deblock=1:-3:-3 / analyse=0x3:0x133 / me=umh / subme=9 / psy=1 / psy_rd=1.00:0.00 / mixed_ref=1 / me_range=16 / chroma_me=1 / trellis=2 / 8x8dct=1 / cqm=0 / deadzone=21,11 / fast_pskip=0 / chroma_qp_offset=-2 / threads=15 / lookahead_threads=1 / sliced_threads=0 / nr=0 / decimate=1 / interlaced=0 / bluray_compat=0 / constrained_intra=0 / bframes=3 / b_pyramid=2 / b_adapt=2 / b_bias=0 / direct=3 / weightb=1 / open_gop=0 / weightp=2 / keyint=250 / keyint_min=23 / scenecut=40 / intra_refresh=0 / rc_lookahead=60 / rc=crf / mbtree=1 / crf=17.0 / qcomp=0.60 / qpmin=0 / qpmax=69 / qpstep=4 / ip_ratio=1.40 / aq=3:1.00
Default                                  : Yes
Forced                                   : No
Color range                              : Limited
Matrix coefficients                      : BT.709

Audio
ID                                       : 2
Format                                   : AC-3
Format/Info                              : Audio Coding 3
Commercial name                          : Dolby Digital
Codec ID                                 : A_AC3
Duration                                 : 1 h 32 min
Bit rate mode                            : Constant
Bit rate                                 : 640 kb/s
Channel(s)                               : 6 channels
Channel layout                           : L R C LFE Ls Rs
Sampling rate                            : 48.0 kHz
Frame rate                               : 31.250 FPS (1536 SPF)
Compression mode                         : Lossy
Stream size                              : 423 MiB (12%)
Language                                 : English
Service kind                             : Complete Main
Default                                  : Yes
Forced                                   : No

Text #1
ID                                       : 3
Format                                   : PGS
Muxing mode                              : zlib
Codec ID                                 : S_HDMV/PGS
Codec ID/Info                            : Picture based subtitle format used on BDs/HD-DVDs
Duration                                 : 1 h 27 min
Bit rate                                 : 437 b/s
Count of elements                        : 28
Stream size                              : 281 KiB (0%)
Title                                    : Forced
Language                                 : German
Default                                  : No
Forced                                   : No

Text #2
ID                                       : 4
Format                                   : PGS
Muxing mode                              : zlib
Codec ID                                 : S_HDMV/PGS
Codec ID/Info                            : Picture based subtitle format used on BDs/HD-DVDs
Duration                                 : 1 h 27 min
Bit rate                                 : 30.2 kb/s
Count of elements                        : 2222
Stream size                              : 19.0 MiB (1%)
Title                                    : Vobsubs
Language                                 : German
Default                                  : No
Forced                                   : No

Menu
00:00:00.000                             : en:00:00:00.000
00:06:16.626                             : en:00:06:16.626
00:15:46.696                             : en:00:15:46.696
00:25:51.091                             : en:00:25:51.091
00:31:00.400                             : en:00:31:00.400
00:39:06.511                             : en:00:39:06.511
00:50:08.923                             : en:00:50:08.923
00:58:51.778                             : en:00:58:51.778
01:05:24.045                             : en:01:05:24.045
01:11:24.947                             : en:01:11:24.947
01:21:38.602                             : en:01:21:38.602
01:28:43.777                             : en:01:28:43.777

[/url]



                                                                                                                                                                                                        
                                                                                                                                                                                                                                                                                                                                                                                                                                                                                                                                                                                                                                                                                                                                                                                                                                                        
278b8c3ba222e91dcca90de0710d2cdc.zip (36.07 KB, 下载次数: 0)

回复

使用道具 举报

小黑屋|百度云资源分享吧 ( 京ICP备15014721号-2 )

本网站所有资源来自网络,如无意中侵犯了您的权益,请发邮件至 [email protected],立即清除相关链接

GMT+8, 2021-4-19 02:23 , Processed in 0.186826 second(s), 23 queries .

Powered by Discuz! X3.2

© 2001-2013 Comsenz Inc.

快速回复 返回顶部 返回列表