百度云资源论坛

 找回密码
 立即注册

尤巴县突发新闻/尤巴猛料 Breaking.News.In.Yuba.County.2021.720p.BluRay.x264.DTS-M ...

[复制链接]
百度云资源 发表于 2021-4-4 12:00:55 | 显示全部楼层 |阅读模式
-->
帖子完整标题:尤巴县突发新闻/尤巴猛料 Breaking.News.In.Yuba.County.2021.720p.BluRay.x264.DTS-MT 2.94GB



[/url]

◎译  名 尤巴县突发新闻/尤巴猛料
◎片  名 Breaking News In Yuba County
◎年  代 2021
◎产  地 英国,美国
◎类  别 剧情 / 喜剧 / 惊悚 / 犯罪
◎语  言 英语
◎上映日期 2021-02-12(美国网络)
◎IMDb评分  5.6/10 from 1633 users
◎IMDb链接  
◎豆瓣评分 /10 from 0 users
◎豆瓣链接 
◎片  长 96分钟
◎导  演 泰特·泰勒 Tate Taylor
◎编  剧 阿曼达·伊多科 Amanda Idoko
◎主  演 艾莉森·珍妮 Allison Janney
       米拉·库尼斯 Mila Kunis
       奥卡菲娜 Awkwafina
       旺达·塞克丝 Wanda Sykes
       马修·莫迪恩 Matthew Modine
       萨米拉·威利 Samira Wiley
       艾伦·巴金 Ellen Barkin
       朱丽叶特·刘易斯 Juliette Lewis
       雷吉娜·赫尔 Regina Hall
       吉米·辛普森 Jimmi Simpson
       克里斯·劳威尔 Chris Lowell
       小克利夫顿·克林斯 Clifton Collins Jr.
       布里奇特·埃弗里特 Bridget Everett
       马塞拉·伦茨·波普 Marcella Lentz-Pope
       多米尼克·伯吉斯 Dominic Burgess
       露西·浮士德 Lucy Faust
       申庚 Keong Sim
       西尔维娅·格雷丝·克里姆 Sylvia Grace Crim
       迪内·泰勒 Deneen Tyler
       T·C·马特恩 T.C. Matherne
       彼得·詹梅斯 Peter Jaymes Jr.
       劳拉·邓恩 Laura Dern

◎标  签 2021 | 美国 | 黑色幽默 | 电影 | 犯罪 | 剧情 | 美国电影 | 惊悚

◎简  介

  苏·宝特姆斯(珍妮饰)将丈夫与一个女子捉奸在床,却没成想,她的丈夫被吓到心脏病发离世。苏随即把丈夫尸身埋掉。老公的消失,倒是让苏的名望、地位日益增长。但是苏很快发现,她自己不仅要躲避警察和罪犯,更要对她那迫切想要获得猛料的新闻主播妹妹南希三缄其口。
Video
ID                                       : 1
Format                                   : AVC
Format/Info                              : Advanced Video Codec
Format profile                           :
Format settings                          : CABAC / 12 Ref Frames
Format settings, CABAC                   : Yes
Format settings, Reference frames        : 12 frames
Codec ID                                 : V_MPEG4/ISO/AVC
Duration                                 : 1 h 36 min
Bit rate                                 : 2 861 kb/s
Width                                    : 1 280 pixels
Height                                   : 536 pixels
Display aspect ratio                     : 2.40:1
Frame rate mode                          : Constant
Frame rate                               : 23.976 (24000/1001/189150) FPS
Color space                              : YUV
Chroma subsampling                       : 4:2:0
Bit depth                                : 8 bits
Scan type                                : Progressive
Bits/(Pixel*Frame)                       : 0.174
Stream size                              : 1.93 GiB (65%)
Writing library                          : x264 core 157 r2938 2b00a84  Mod
Encoding settings                        : cabac=1 / ref=12 / deblock=1:-3:-3 / analyse=0x3:0x133 / me=umh / subme=10 / psy=1 / psy_rd=1.05:0.00 / mixed_ref=1 / me_range=32 / chroma_me=1 / trellis=2 / 8x8dct=1 / cqm=0 / deadzone=21,11 / fast_pskip=0 / chroma_qp_offset=-2 / threads=12 / lookahead_threads=2 / sliced_threads=0 / nr=0 / decimate=0 / interlaced=0 / bluray_compat=0 / constrained_intra=0 / bframes=8 / b_pyramid=2 / b_adapt=2 / b_bias=0 / direct=3 / weightb=1 / open_gop=0 / weightp=2 / keyint=250 / keyint_min=24 / scenecut=40 / intra_refresh=0 / rc_lookahead=250 / rc=crf / mbtree=0 / crf=16.8 / qcomp=0.60 / qpmin=0 / qpmax=69 / qpstep=4 / vbv_maxrate=62500 / vbv_bufsize=78125 / crf_max=0.0 / nal_hrd=none / filler=0 / ip_ratio=1.30 / pb_ratio=1.20 / aq=3:0.80
Language                                 : English
Default                                  : Yes
Forced                                   : No
Color range                              : Limited
Color primaries                          : BT.709
Matrix coefficients                      : BT.709

Audio
ID                                       : 2
Format                                   : DTS
Format/Info                              : Digital Theater Systems
Codec ID                                 : A_DTS
Duration                                 : 1 h 36 min
Bit rate mode                            : Constant
Bit rate                                 : 1 509 kb/s
Channel(s)                               : 6 channels
Channel layout                           : C L R Ls Rs LFE
Sampling rate                            : 48.0 kHz
Frame rate                               : 93.750 FPS (512 SPF)
Bit depth                                : 24 bits
Compression mode                         : Lossy
Stream size                              : 1.02 GiB (35%)
Language                                 : English
Default                                  : Yes
Forced                                   : No

Text
ID                                       : 3
Format                                   : UTF-8
Codec ID                                 : S_TEXT/UTF8
Codec ID/Info                            : UTF-8 Plain Text
Duration                                 : 1 h 29 min
Bit rate                                 : 76 b/s
Count of elements                        : 1783
Stream size                              : 49.8 KiB (0%)
Language                                 : English
Default                                  : Yes
Forced                                   : No

Menu
00:00:00.000                             : en:Chapter 01
00:10:21.663                             : en:Chapter 02
00:19:52.691                             : en:Chapter 03
00:30:21.111                             : en:Chapter 04
00:41:30.863                             : en:Chapter 05
00:49:46.317                             : en:Chapter 06
00:59:59.304                             : en:Chapter 07
01:09:49.977                             : en:Chapter 08
01:20:31.994                             : en:Chapter 09
01:27:46.136                             : en:Chapter 10

[/url]

[/url]

[/url]



                                                                                                                                                                                                        
                                                                                                                                                                                                                                                                                                                                                                                                                                                                                                                                                                                                                                                                                                                                                                                                                                                        
b01e4e231ff644ed86ebdd23703083e0.zip (30.11 KB, 下载次数: 0)

回复

使用道具 举报

小黑屋|百度云资源分享吧 ( 京ICP备15014721号-2 )

本网站所有资源来自网络,如无意中侵犯了您的权益,请发邮件至 [email protected],立即清除相关链接

GMT+8, 2021-4-19 01:04 , Processed in 0.104967 second(s), 23 queries .

Powered by Discuz! X3.2

© 2001-2013 Comsenz Inc.

快速回复 返回顶部 返回列表