百度云资源论坛

 找回密码
 立即注册

德川刺青师 责罚地狱 Inferno.of.Torture.1969.720p.BluRay.x264-ORBS 3.58GB ... ...

[复制链接]
百度云资源 发表于 2021-4-5 12:02:40 | 显示全部楼层 |阅读模式
-->
帖子完整标题:德川刺青师 责罚地狱 Inferno.of.Torture.1969.720p.BluRay.x264-ORBS 3.58GB





◎译  名 德川刺青师 责罚地狱/Inferno Of Torture/Tokugawa irezumi-shi: Seme jigoku/德川责罚地狱
◎片  名 徳川いれずみ師 責め地獄
◎年  代 1969
◎产  地 日本
◎类  别 剧情 / 惊悚 / 恐怖 / 犯罪
◎语  言 日语
◎上映日期 1969-05-02
◎IMDb评分  5.7/10 from 390 users
◎IMDb链接  https://www.imdb.com/title/tt0142920/
◎豆瓣评分 5.7/10 from 228 users
◎豆瓣链接 https://movie.douban.com/subject/2053741/
◎片  长 France: 90 分钟
◎导  演 石井辉男 Teruo Ishii
◎编  剧 石井辉男 Teruo Ishii
◎主  演 吉田辉雄 Yoshida Teruo
       片山由美子 Yumiko Katayama
       田中春男 Haruo Tanaka
       小池朝雄 Asao Koike
       橘ますみ
       贺川雪绘 Yukie Kagawa
       岡田千代 Chiyo Okada

◎标  签 日本 | 情色 | 石井辉男 | 捆绑 | 日本电影 | 徳川いれずみ師 | Cult | 我想看

◎简  介

  影片讲述德川时期底层百姓所经历的残酷命运。
  
  父母身后欠下外债,弟弟又身染重病,少女由美(片山由美子 饰)被迫进入一家诡异的妓院。女店主阿龙(藤本三重子 饰)爱慕由美不可得,愤而在其身上安装贞操带,钥匙却被强暴了由美的弦造(林真一郎 饰)吞下。由美为拿回钥匙挖坟剖腹,事发后被处以火烧酷刑……
  
  雕秀(吉田辉雄 饰)与雕辰(小池朝雄 饰)是一对顶尖刺青师,雕秀被妓院老板陷害,获罪流放。雕辰则霸占雕秀女友阿玲,在其背上刺青。不忍受辱的阿玲服毒自尽,从长崎逃回来的雕秀发誓要跟雕辰决一胜负……
Video
ID                                       : 1
Format                                   : AVC
Format/Info                              : Advanced Video Codec
Format profile                           : [email protected]
Format settings                          : CABAC / 12 Ref Frames
Format settings, CABAC                   : Yes
Format settings, Reference frames        : 12 frames
Codec ID                                 : V_MPEG4/ISO/AVC
Duration                                 : 1 h 34 min
Bit rate                                 : 5 034 kb/s
Width                                    : 1 280 pixels
Height                                   : 544 pixels
Display aspect ratio                     : 2.35:1
Frame rate mode                          : Constant
Frame rate                               : 23.976 (24000/1001/189150) FPS
Color space                              : YUV
Chroma subsampling                       : 4:2:0
Bit depth                                : 8 bits
Scan type                                : Progressive
Bits/(Pixel*Frame)                       : 0.302
Stream size                              : 3.34 GiB (93%)
Writing library                          : x264 core 161 r3048 b86ae3c
Encoding settings                        : cabac=1 / ref=12 / deblock=1:-3:-3 / analyse=0x3:0x133 / me=umh / subme=10 / psy=1 / psy_rd=1.50:0.15 / mixed_ref=1 / me_range=24 / chroma_me=1 / trellis=2 / 8x8dct=1 / cqm=0 / deadzone=21,11 / fast_pskip=0 / chroma_qp_offset=-3 / threads=17 / lookahead_threads=2 / sliced_threads=0 / nr=0 / decimate=0 / interlaced=0 / bluray_compat=0 / constrained_intra=0 / bframes=8 / b_pyramid=2 / b_adapt=2 / b_bias=0 / direct=3 / weightb=1 / open_gop=0 / weightp=2 / keyint=250 / keyint_min=23 / scenecut=40 / intra_refresh=0 / rc_lookahead=60 / rc=crf / mbtree=1 / crf=18.0 / qcomp=0.60 / qpmin=0 / qpmax=69 / qpstep=4 / ip_ratio=1.40 / aq=3:0.50
Default                                  : Yes
Forced                                   : No
Color range                              : Limited
Matrix coefficients                      : BT.709

Audio #1
ID                                       : 2
Format                                   : FLAC
Format/Info                              : Free Lossless Audio Codec
Codec ID                                 : A_FLAC
Duration                                 : 1 h 34 min
Bit rate mode                            : Variable
Bit rate                                 : 255 kb/s
Channel(s)                               : 2 channels
Channel layout                           : L R
Sampling rate                            : 48.0 kHz
Frame rate                               : 11.719 FPS (4096 SPF)
Bit depth                                : 16 bits
Compression mode                         : Lossless
Stream size                              : 173 MiB (5%)
Writing library                          : libFLAC 1.3.2 (UTC 2017-01-01)
Language                                 : English
Default                                  : Yes
Forced                                   : No

Audio #2
ID                                       : 3
Format                                   : AAC LC
Format/Info                              : Advanced Audio Codec Low Complexity
Codec ID                                 : A_AAC-2
Duration                                 : 1 h 34 min
Bit rate                                 : 101 kb/s
Channel(s)                               : 2 channels
Channel layout                           : L R
Sampling rate                            : 48.0 kHz
Frame rate                               : 46.875 FPS (1024 SPF)
Compression mode                         : Lossy
Delay relative to video                  : 20 ms
Stream size                              : 68.3 MiB (2%)
Title                                    : Commentary
Language                                 : English
Default                                  : No
Forced                                   : No

Text #1
ID                                       : 4
Format                                   : UTF-8
Codec ID                                 : S_TEXT/UTF8
Codec ID/Info                            : UTF-8 Plain Text
Duration                                 : 1 h 34 min
Bit rate                                 : 28 b/s
Count of elements                        : 629
Stream size                              : 19.5 KiB (0%)
Title                                    : English (Forced)
Language                                 : English
Default                                  : Yes
Forced                                   : Yes

Text #2
ID                                       : 5
Format                                   : PGS
Muxing mode                              : zlib
Codec ID                                 : S_HDMV/PGS
Codec ID/Info                            : Picture based subtitle format used on BDs/HD-DVDs
Duration                                 : 1 h 34 min
Bit rate                                 : 16.1 kb/s
Count of elements                        : 1260
Stream size                              : 10.9 MiB (0%)
Language                                 : English
Default                                  : No
Forced                                   : No

Menu
00:00:00.000                             : en:Chapter 01
00:12:37.173                             : en:Chapter 02
00:20:55.254                             : en:Chapter 03
00:30:35.959                             : en:Chapter 04
00:43:13.800                             : en:Chapter 05
00:49:40.603                             : en:Chapter 06
01:00:37.050                             : en:Chapter 07
01:09:59.570                             : en:Chapter 08
01:19:49.994                             : en:Chapter 09
01:27:26.700                             : en:Chapter 10





                                                                                                                                                                                                        
                                                                                                                                                                                                                                                                                                                                                                                                                                                                                                                                                                                                                                                                                                                                                                                                                                                        
ddb6cc5b9db55ac7155e492f213d549f.zip (36.48 KB, 下载次数: 0)

回复

使用道具 举报

小黑屋|百度云资源分享吧 ( 京ICP备15014721号-2 )

本网站所有资源来自网络,如无意中侵犯了您的权益,请发邮件至 [email protected],立即清除相关链接

GMT+8, 2021-4-19 01:34 , Processed in 0.106620 second(s), 23 queries .

Powered by Discuz! X3.2

© 2001-2013 Comsenz Inc.

快速回复 返回顶部 返回列表