百度云资源论坛

 找回密码
 立即注册

世事无常/情况变化 Things.Change.1988.720p.BluRay.x264-GAZER 5.77GB

[复制链接]
百度云资源 发表于 2021-4-5 12:02:40 | 显示全部楼层 |阅读模式
-->
帖子完整标题:世事无常/情况变化 Things.Change.1988.720p.BluRay.x264-GAZER 5.77GB



[/url]

◎译  名 世事无常/情况变化/老千大阴谋
◎片  名 Things Change
◎年  代 1988
◎产  地 美国
◎类  别 剧情 / 喜剧 / 犯罪
◎语  言 英语,意大利语
◎上映日期 1988-10-21
◎IMDb评分  7/10 from 3297 users
◎IMDb链接  
◎豆瓣评分 7.3/10 from 72 users
◎豆瓣链接 
◎片  长 100 分钟
◎导  演 大卫·马梅 David Mamet
◎编  剧 大卫·马梅 David Mamet / 谢尔·西尔弗斯坦 Shel Silverstein
◎主  演 唐·阿米契 Don Ameche
       德雷克·R·希尔 Derek R. Hill
       J.J. Johnston
       纳塔利娅·努古利奇 Natalia Nogulich
       迈克·努斯鲍姆 Mike Nussbaum
       Howard Rosenstone
       Charles Stransky
       杰克·华莱士 Jack Wallace
       文森特·瓜斯塔费罗 Vincent Guastaferro
       Allen Soule
       瑞奇·杰 Ricky Jay
       Christopher Kaldor
       乔丹·拉戈 Jordan Lage
       杰克·梅里尔 Jack Merrill
       莱昂内尔·马克·史密斯 Lionel Mark Smith
       威廉姆·H·梅西 William H. Macy
       菲丽西提·霍夫曼 Felicity Huffman
       罗伯特·普罗斯基 Robert Prosky
       乔纳森·凯兹 Jonathan Katz
       乔·曼特纳 Joe Mantegna
       迪克·库萨克 Dick Cusack
       Robert Bella
       J·T·沃尔什 J.T. Walsh
       亚当·比特曼 Adam Bitterman
       Jerry Graff
       Steven Goldstein
       克拉克·格雷格 Clark Gregg

◎标  签 美国 | 大卫·马梅 | 犯罪 | 喜剧 | DavidMamet | 美国电影 | David_Mamet | 1980s

◎简  介

  Shoe-shiner Gino is hired to take the rap for a mafia murder. Two-bit gangster Jerry watches over Gino and gives him a weekend to remember.

◎获奖情况

  第45届威尼斯电影节 ?(1988)
  主竞赛单元金狮奖(提名) 大卫·马梅
  沃尔皮杯最佳男演员 唐·阿米契?/?乔·曼特纳
Video
ID                                       : 1
Format                                   : AVC
Format/Info                              : Advanced Video Codec
Format profile                           :
Format settings                          : CABAC / 9 Ref Frames
Format settings, CABAC                   : Yes
Format settings, Reference frames        : 9 frames
Codec ID                                 : V_MPEG4/ISO/AVC
Duration                                 : 1 h 40 min
Bit rate                                 : 7 557 kb/s
Width                                    : 1 280 pixels
Height                                   : 694 pixels
Display aspect ratio                     : 1.85:1
Frame rate mode                          : Constant
Frame rate                               : 23.976 (24000/1001/189150) FPS
Color space                              : YUV
Chroma subsampling                       : 4:2:0
Bit depth                                : 8 bits
Scan type                                : Progressive
Bits/(Pixel*Frame)                       : 0.355
Stream size                              : 5.30 GiB (92%)
Writing library                          : x264 core 161 r3048 b86ae3c
Encoding settings                        : cabac=1 / ref=9 / deblock=1:-3:-3 / analyse=0x3:0x133 / me=umh / subme=10 / psy=1 / psy_rd=1.50:0.15 / mixed_ref=1 / me_range=24 / chroma_me=1 / trellis=2 / 8x8dct=1 / cqm=0 / deadzone=21,11 / fast_pskip=0 / chroma_qp_offset=-3 / threads=22 / lookahead_threads=3 / sliced_threads=0 / nr=0 / decimate=0 / interlaced=0 / bluray_compat=0 / constrained_intra=0 / bframes=8 / b_pyramid=2 / b_adapt=2 / b_bias=0 / direct=3 / weightb=1 / open_gop=0 / weightp=2 / keyint=250 / keyint_min=23 / scenecut=40 / intra_refresh=0 / rc_lookahead=60 / rc=crf / mbtree=1 / crf=18.0 / qcomp=0.60 / qpmin=0 / qpmax=69 / qpstep=4 / ip_ratio=1.40 / aq=3:0.50
Default                                  : Yes
Forced                                   : No
Color range                              : Limited
Matrix coefficients                      : BT.709

Audio
ID                                       : 2
Format                                   : FLAC
Format/Info                              : Free Lossless Audio Codec
Codec ID                                 : A_FLAC
Duration                                 : 1 h 40 min
Bit rate mode                            : Variable
Bit rate                                 : 642 kb/s
Channel(s)                               : 1 channel
Channel layout                           : C
Sampling rate                            : 48.0 kHz
Frame rate                               : 11.719 FPS (4096 SPF)
Bit depth                                : 24 bits
Compression mode                         : Lossless
Stream size                              : 461 MiB (8%)
Writing library                          : libFLAC 1.3.2 (UTC 2017-01-01)
Language                                 : English
Default                                  : Yes
Forced                                   : No

Text
ID                                       : 3
Format                                   : PGS
Muxing mode                              : zlib
Codec ID                                 : S_HDMV/PGS
Codec ID/Info                            : Picture based subtitle format used on BDs/HD-DVDs
Duration                                 : 1 h 38 min
Bit rate                                 : 40.6 kb/s
Count of elements                        : 2588
Stream size                              : 28.5 MiB (0%)
Title                                    : SDH
Language                                 : English
Default                                  : No
Forced                                   : No

Menu
00:00:00.000                             : en:Chapter 01
00:05:22.822                             : en:Chapter 02
00:16:06.674                             : en:Chapter 03
00:24:11.659                             : en:Chapter 04
00:31:12.162                             : en:Chapter 05
00:41:28.277                             : en:Chapter 06
00:50:14.887                             : en:Chapter 07
00:56:53.243                             : en:Chapter 08
01:05:38.268                             : en:Chapter 09
01:17:33.774                             : en:Chapter 10
01:25:18.280                             : en:Chapter 11
01:31:30.902                             : en:Chapter 12

[/url]



                                                                                                                                                                                                        
                                                                                                                                                                                                                                                                                                                                                                                                                                                                                                                                                                                                                                                                                                                                                                                                                                                        
0af9b3ed39b01be96f30784d8d563639.zip (29.51 KB, 下载次数: 0)

回复

使用道具 举报

小黑屋|百度云资源分享吧 ( 京ICP备15014721号-2 )

本网站所有资源来自网络,如无意中侵犯了您的权益,请发邮件至 [email protected],立即清除相关链接

GMT+8, 2021-4-19 01:46 , Processed in 0.094961 second(s), 23 queries .

Powered by Discuz! X3.2

© 2001-2013 Comsenz Inc.

快速回复 返回顶部 返回列表