百度云资源论坛

 找回密码
 立即注册

公主驾到 The.Princess.Comes.Across.1936.1080p.BluRay.x264.FLAC.2.0-NOGRP 7.61GB ...

[复制链接]
百度云资源 发表于 2021-4-6 12:54:52 | 显示全部楼层 |阅读模式
-->
帖子完整标题:公主驾到 The.Princess.Comes.Across.1936.1080p.BluRay.x264.FLAC.2.0-NOGRP 7.61GB



[/url]

◎译  名 公主驾到
◎片  名 The Princess Comes Across
◎年  代 1936
◎产  地 美国
◎类  别 喜剧 / 爱情 / 悬疑 / 惊悚
◎语  言 英语
◎上映日期 1936-05-22
◎IMDb评分  6.8/10 from 890 users
◎IMDb链接  
◎豆瓣评分 6.9/10 from 60 users
◎豆瓣链接 
◎片  长 76 分钟
◎导  演 威廉·K·霍华德 William K. Howard
◎编  剧 沃尔特·德莱昂 Walter DeLeon / Francis Martin / 唐·哈特曼 Don Hartman / 菲利普·麦克唐纳 Philip MacDonald / 约翰·博因顿·普里斯特利 J.B. Priestley / 克劳德·比尼恩 Claude Binyon / 弗兰克·巴特勒 Frank Butler
◎主  演 卡洛·朗白 Carole Lombard
       弗莱德·麦克莫瑞 Fred MacMurray
       道格拉斯·敦布里勒 Douglass Dumbrille
       Bradley Page
       詹姆斯·T·麦克 James T. Mack
       爱德华·基恩 Edward Keane
       Paul Kruger
       格拉登·詹姆斯 Gladden James
       Tetsu Komai
       Maybelle Palmer
       西戈·鲁曼 Sig Ruman
       Christian Rub
       Ellinor Vanderveer
       Bess Stafford
       米尔本·斯通 Milburn Stone
       Bernard Suss
       Phil Tead
       Alphonse Martell
       Alison Skipworth
       George Sorel
       Isabel La Mal
       哈里·海登 Harry Hayden
       波特·霍尔 Porter Hall
       乔治·坦普尔顿 George Templeton
       米沙·奥尔 Mischa Auer
       杰克·雷蒙德 Jack Raymond
       Tom Herbert
       约翰·萨顿 John Sutton
       本尼·巴莱特 Benny Bartlett
       曼雅·安德烈 Monya Andre
       乔治·巴比尔 George Barbier
       大卫·克莱德 David Clyde
       Gaston Glass
       Lumsden Hare
       Charles Fallon
       Jean De Briac
       迪克·埃利奥特 Dick Elliott
       威廉·弗劳利 William Frawley
       乔治·钱德勒 George Chandler
       埃迪·邓恩 Eddie Dunn

◎标  签 美国 | CaroleLombard | 1930s | 爱情 | 1936 | 喜剧 | 卡洛·朗白 | 黑白

◎简  介

  万达纳西(卡洛尔·隆巴德饰演),布鲁克林来的一名女演员,为了土地和一个好莱坞工作室的电影演出合同,决定伪装成来自瑞典的“奥尔加公主”,登上开往纽约的客轮的猛犸象。她跑进王曼特尔(弗莱德麦克默里饰演),手风琴演奏乐队的主唱——他过去曾有过犯罪记录。他们都被罗伯特·达西(波特·海尔饰演)敲诈,之后罗伯特·达西被杀,他们成为两对谋杀案的主要嫌疑人,他们必须在有五个警察和侦探的船上找到真正的凶手……
  
  ~~~~~~~~~~~~~~~~~~~~~~~~~~~~~~~~~~~~~~~~~~~~~~~~~~~~~~~~~~~~~~~
  
  Wanda Nash (Carole Lombard), an actress from Brooklyn, decides to masquerade as "Princess Olga" from Sweden in order to land a film contract with a big Hollywood studio. On board the liner Mammoth bound for New York, she runs into King Mantell (Fred MacMurray), a concertina-playing band leader with a criminal record in his past. Both are blackmailed by Robert M. Darcy (Porter Hall), and after Darcy is killed, they become two of the prime suspects for the murder, and must find the real killer before the five police detectives traveling on the ship can pin it on them.
Video
ID                                       : 1
Format                                   : AVC
Format/Info                              : Advanced Video Codec
Format profile                           :
Format settings                          : CABAC / 5 Ref Frames
Format settings, CABAC                   : Yes
Format settings, Reference frames        : 5 frames
Codec ID                                 : V_MPEG4/ISO/AVC
Duration                                 : 1 h 16 min
Bit rate                                 : 13.9 Mb/s
Width                                    : 1 488 pixels
Height                                   : 1 080 pixels
Display aspect ratio                     : 1.378
Frame rate mode                          : Constant
Frame rate                               : 23.976 (24000/1001/189150) FPS
Color space                              : YUV
Chroma subsampling                       : 4:2:0
Bit depth                                : 8 bits
Scan type                                : Progressive
Bits/(Pixel*Frame)                       : 0.362
Stream size                              : 7.44 GiB (98%)
Writing library                          : x264 core 157 r2932 303c484
Encoding settings                        : cabac=1 / ref=5 / deblock=1:-3:-3 / analyse=0x3:0x133 / me=umh / subme=11 / psy=1 / psy_rd=1.02:0.00 / mixed_ref=1 / me_range=32 / chroma_me=1 / trellis=2 / 8x8dct=1 / cqm=0 / deadzone=21,11 / fast_pskip=0 / chroma_qp_offset=-2 / threads=34 / lookahead_threads=8 / sliced_threads=0 / nr=0 / decimate=0 / interlaced=0 / bluray_compat=0 / constrained_intra=0 / bframes=16 / b_pyramid=2 / b_adapt=2 / b_bias=0 / direct=3 / weightb=1 / open_gop=0 / weightp=2 / keyint=250 / keyint_min=23 / scenecut=40 / intra_refresh=0 / rc_lookahead=250 / rc=crf / mbtree=0 / crf=22.0 / qcomp=0.60 / qpmin=0 / qpmax=69 / qpstep=4 / vbv_maxrate=62500 / vbv_bufsize=78125 / crf_max=0.0 / nal_hrd=none / filler=0 / ip_ratio=1.30 / pb_ratio=1.20 / aq=3:0.80
Language                                 : English
Default                                  : Yes
Forced                                   : No
Color range                              : Limited
Color primaries                          : BT.709
Matrix coefficients                      : BT.709

Audio
ID                                       : 2
Format                                   : FLAC
Format/Info                              : Free Lossless Audio Codec
Codec ID                                 : A_FLAC
Duration                                 : 1 h 16 min
Bit rate mode                            : Variable
Bit rate                                 : 301 kb/s
Channel(s)                               : 2 channels
Channel layout                           : L R
Sampling rate                            : 48.0 kHz
Frame rate                               : 11.719 FPS (4096 SPF)
Bit depth                                : 16 bits
Compression mode                         : Lossless
Delay relative to video                  : 11 s 0 ms
Stream size                              : 164 MiB (2%)
Writing library                          : libFLAC 1.2.1 (UTC 2007-09-17)
Language                                 : English
Default                                  : Yes
Forced                                   : No

Text #1
ID                                       : 3
Format                                   : UTF-8
Codec ID                                 : S_TEXT/UTF8
Codec ID/Info                            : UTF-8 Plain Text
Duration                                 : 1 h 14 min
Bit rate                                 : 81 b/s
Count of elements                        : 1024
Stream size                              : 44.2 KiB (0%)
Title                                    : SRT
Language                                 : English
Default                                  : Yes
Forced                                   : No

Text #2
ID                                       : 4
Format                                   : PGS
Muxing mode                              : zlib
Codec ID                                 : S_HDMV/PGS
Codec ID/Info                            : Picture based subtitle format used on BDs/HD-DVDs
Duration                                 : 1 h 14 min
Bit rate                                 : 44.4 kb/s
Count of elements                        : 1918
Stream size                              : 23.6 MiB (0%)
Language                                 : English
Default                                  : No
Forced                                   : No

Menu
00:00:00.000                             : en:Chapter 1
00:09:10.759                             : en:Chapter 2
00:16:49.008                             : en:Chapter 3
00:30:41.089                             : en:Chapter 4
00:43:03.623                             : en:Chapter 5
00:55:59.398                             : en:Chapter 6
01:07:00.600                             : en:Chapter 7
01:11:44.091                             : en:Chapter 8

[/url]

[/url]

[/url]



                                                                                                                                                                                                        
                                                                                                                                                                                                                                                                                                                                                                                                                                                                                                                                                                                                                                                                                                                                                                                                                                                        
c40d1e34b365df01d8e1d124fafca9bb.zip (38.75 KB, 下载次数: 0)

回复

使用道具 举报

小黑屋|百度云资源分享吧 ( 京ICP备15014721号-2 )

本网站所有资源来自网络,如无意中侵犯了您的权益,请发邮件至 [email protected],立即清除相关链接

GMT+8, 2021-4-19 01:10 , Processed in 0.109990 second(s), 23 queries .

Powered by Discuz! X3.2

© 2001-2013 Comsenz Inc.

快速回复 返回顶部 返回列表