百度云资源论坛

 找回密码
 立即注册

孽迷宫/恶魔 Diabolique.1996.720p.BluRay.x264-MiMiC 3.64GB

[复制链接]
百度云资源 发表于 2021-4-7 12:05:50 | 显示全部楼层 |阅读模式
-->
帖子完整标题:孽迷宫/恶魔 Diabolique.1996.720p.BluRay.x264-MiMiC 3.64GB



[/url]

◎译  名 孽迷宫/恶魔/惊世第六感/魔鬼双姝
◎片  名 Diabolique
◎年  代 1996
◎产  地 美国
◎类  别 剧情 / 悬疑 / 惊悚 / 恐怖
◎语  言 英语,西班牙语
◎上映日期 1996-06-06
◎IMDb评分  5.5/10 from 13470 users
◎IMDb链接  
◎豆瓣评分 6.5/10 from 1824 users
◎豆瓣链接 
◎片  长 107 分钟
◎导  演 耶利米·S·谢奇克 Jeremiah S. Chechik
◎编  剧 唐·罗斯 Don Roos / 亨利-乔治·克鲁佐 Henri-Georges Clouzot / 皮埃尔·布瓦洛 Pierre Boileau / 托马·纳西雅克 Thomas Narcejac
◎主  演 莎朗·斯通 Sharon Stone
       伊莎贝尔·阿佳妮 Isabelle Adjani
       查兹·帕尔明特瑞 Chazz Palminteri
       凯西·贝茨 Kathy Bates
       斯波尔丁·格雷 Spalding Gray
       雪莉·奈特 Shirley Knight
       J·J·艾布拉姆斯 J.J. Abrams
       戴安娜·贝拉米 Diana Bellamy
       唐纳尔·罗格 Donal Logue
       奥尼尔·康普顿 O'Neal Compton
       科里亚·刘易斯 Clea Lewis
       Cory Pattak
       亚当·汉拜德 Adam Hann-Byrd
       Sophia Salguero
       Daniel Kremer
       Jason Sheppard
       艾伦·加菲尔德 Allen Garfield
       宾戈·奥马利 Bingo O'Malley

◎标  签 悬疑 | 美国 | 惊悚 | IsabelleAdjani | 阿佳妮 | 美国电影 | 1996 | 犯罪

◎简  介

  妮可尔(莎朗·斯通 Sharon Stone 饰)和米娅(伊莎贝尔·阿佳妮 Isabelle Adjani 饰)可能是这个世界上关系最密切的两个女人了,然而,她们不是朋友却是敌人,因为两人共同侍奉着同一个男人,那就是米娅的丈夫盖伊(查兹·帕尔明特瑞 Chazz Palminteri 饰)。
  
  盖伊是个狂妄又凶残的混蛋,他不仅不为自己的三心二意感到羞愧,更是软硬兼施,将两个女人牢牢的拴在自己的身边。长久的压抑和郁闷之中,妮可尔和米娅决定联手除掉这个可恶的男人,可是,当她们将一个绝妙的计划付诸行动之后,两人的身边开始发生一些无法用常理来解释的神秘事件。与此同时,女侦探雪莉(凯西·贝茨 Kathy Bates 饰)的步步紧逼让妮可尔和米娅明白,她们目前的处境并不乐观。
Video
ID                                       : 1
Format                                   : AVC
Format/Info                              : Advanced Video Codec
Format profile                           :
Format settings                          : CABAC / 8 Ref Frames
Format settings, CABAC                   : Yes
Format settings, Reference frames        : 8 frames
Codec ID                                 : V_MPEG4/ISO/AVC
Duration                                 : 1 h 47 min
Bit rate                                 : 4 345 kb/s
Width                                    : 1 280 pixels
Height                                   : 694 pixels
Display aspect ratio                     : 1.85:1
Frame rate mode                          : Constant
Frame rate                               : 23.976 (24000/1001/189150) FPS
Color space                              : YUV
Chroma subsampling                       : 4:2:0
Bit depth                                : 8 bits
Scan type                                : Progressive
Bits/(Pixel*Frame)                       : 0.204
Stream size                              : 3.26 GiB (90%)
Writing library                          : x264 core 161 r3048 b86ae3c
Encoding settings                        : cabac=1 / ref=8 / deblock=1:0:0 / analyse=0x3:0x133 / me=umh / subme=9 / psy=1 / psy_rd=1.00:0.00 / mixed_ref=1 / me_range=16 / chroma_me=1 / trellis=2 / 8x8dct=1 / cqm=0 / deadzone=21,11 / fast_pskip=0 / chroma_qp_offset=-2 / threads=18 / lookahead_threads=1 / sliced_threads=0 / nr=0 / decimate=0 / interlaced=0 / bluray_compat=0 / constrained_intra=0 / bframes=3 / b_pyramid=2 / b_adapt=2 / b_bias=0 / direct=3 / weightb=1 / open_gop=0 / weightp=2 / keyint=240 / keyint_min=23 / scenecut=40 / intra_refresh=0 / rc=crf / mbtree=0 / crf=20.6 / qcomp=0.60 / qpmin=0 / qpmax=69 / qpstep=4 / ip_ratio=1.40 / pb_ratio=1.30 / aq=1:1.00
Default                                  : Yes
Forced                                   : No
Color range                              : Limited
Matrix coefficients                      : BT.709

Audio
ID                                       : 2
Format                                   : FLAC
Format/Info                              : Free Lossless Audio Codec
Codec ID                                 : A_FLAC
Duration                                 : 1 h 47 min
Bit rate mode                            : Variable
Bit rate                                 : 497 kb/s
Channel(s)                               : 2 channels
Channel layout                           : L R
Sampling rate                            : 48.0 kHz
Frame rate                               : 10.417 FPS (4608 SPF)
Bit depth                                : 24 bits
Compression mode                         : Lossless
Stream size                              : 382 MiB (10%)
Writing library                          : Lavf58.45.100
Language                                 : English
Default                                  : Yes
Forced                                   : No

Text
ID                                       : 3
Format                                   : PGS
Muxing mode                              : zlib
Codec ID                                 : S_HDMV/PGS
Codec ID/Info                            : Picture based subtitle format used on BDs/HD-DVDs
Duration                                 : 1 h 42 min
Bit rate                                 : 21.7 kb/s
Count of elements                        : 2971
Stream size                              : 16.0 MiB (0%)
Language                                 : English
Default                                  : Yes
Forced                                   : No

Menu
00:00:00.000                             : en:Chapter 01
00:09:26.900                             : en:Chapter 02
00:21:56.398                             : en:Chapter 03
00:36:08.750                             : en:Chapter 04
00:46:58.649                             : en:Chapter 05
00:56:35.475                             : en:Chapter 06
01:08:36.613                             : en:Chapter 07
01:22:39.997                             : en:Chapter 08
01:43:33.916                             : en:Chapter 09
01:47:28.484                             : en:Chapter 10

[/url]



                                                                                                                                                                                                        
                                                                                                                                                                                                                                                                                                                                                                                                                                                                                                                                                                                                                                                                                                                                                                                                                                                        
616f1dae1e3305703b874d1fcff41f71.zip (37.07 KB, 下载次数: 0)

回复

使用道具 举报

小黑屋|百度云资源分享吧 ( 京ICP备15014721号-2 )

本网站所有资源来自网络,如无意中侵犯了您的权益,请发邮件至 [email protected],立即清除相关链接

GMT+8, 2021-4-19 01:56 , Processed in 0.110879 second(s), 23 queries .

Powered by Discuz! X3.2

© 2001-2013 Comsenz Inc.

快速回复 返回顶部 返回列表