百度云资源论坛

 找回密码
 立即注册

一袋弹子 A.Bag.of.Marbles.2017.FRENCH.1080p.BluRay.x264.DTS-YZ 11.62GB

[复制链接]
百度云资源 发表于 2021-4-7 13:01:23 | 显示全部楼层 |阅读模式
-->
帖子完整标题:一袋弹子 A.Bag.of.Marbles.2017.FRENCH.1080p.BluRay.x264.DTS-YZ 11.62GB



[/url]

◎译  名 一袋弹子/A Bag Of Marbles/一袋弹珠/弹子袋
◎片  名 Un sac de billes
◎年  代 2017
◎产  地 法国,加拿大,捷克
◎类  别 剧情 / 历史 / 战争
◎语  言 法语,德语,意第绪语,俄语
◎上映日期 2017-01-18(法国)
◎IMDb评分  7.3/10 from 4948 users
◎IMDb链接  
◎豆瓣评分 8.2/10 from 8325 users
◎豆瓣链接 
◎片  长 110分钟
◎导  演 克里斯丁·杜瓦 Christian Duguay
◎编  剧 克里斯丁·杜瓦 Christian Duguay / 伯努瓦·吉夏尔 Beno?t Guichard / 乔纳森·阿鲁切 Jonathan Allouche / 亚历山德拉·盖斯马 Alexandra Geismar / 劳伦特·泽图恩 Laurent Zeitoun / 约瑟夫·约弗 Joseph Joffo
◎主  演 多里安·勒·克利奇 Dorian Le Clech
       巴蒂斯特·弗勒里埃尔 Batyste Fleurial
       帕特里克·布鲁尔 Patrick Bruel
       艾尔莎·泽贝斯坦 Elsa Zylberstein
       贝尔纳·康庞 Bernard Campan
       凯文·亚当斯 Kev Adams
       克里斯蒂昂·克拉维埃 Christian Clavier
       凯撒·东布瓦 César Domboy
       伊连·贝加拉 Ilian Bergala
       埃米尔·贝宁 Emile Berling
       乔斯琳·德斯维彻尔 Jocelyne Desverchère
       科琳·莱克勒 Coline Leclère
       伊什尼·齐科特 Etienne Chicot
       霍尔格·达姆根 Holger Daemgen
       皮尔·基维特 Pierre Kiwitt
       约瑟夫·玛勒巴 Joseph Malerba
       文森特·内梅斯 Vincent Nemeth
       罗曼·保罗 Romain Paul
       卢卡斯·普瑞索 Lucas Prisor

◎标  签 二战 | 战争 | 法国 | 犹太人 | 纳粹;犹太家庭 | 儿童 | 剧情 | 历史

◎简  介

  故事发生在第二次世界大战期间,法国被德军占领,纳粹主义在当地横行。莫里斯(巴蒂斯特·弗勒里埃尔 Batyste Fleurial 饰)和乔(多里安·勒·克利奇 Dorian Le Clech 饰)是一对生活在法国的犹太人兄弟,父亲靠经营一家裁缝铺养活孩子们,虽然生活得很辛苦,但是一家人之间的感情非常的亲密。
  
  德军要求每一个犹太人在外衣上缝上黄色的六角星,与此同时,社会对犹太人的忍耐度也在急剧下降,兄弟两人因为他们的血统在学校遭到了同学们的排挤。眼看着势头不对,父亲决定让莫里斯和乔两人先行逃往自由区避难,自己随后就跟上,一家人在尼斯汇合。就这样,两个孩子踏上了逃往的旅途。
Video
ID                                       : 1
Format                                   : AVC
Format/Info                              : Advanced Video Codec
Format profile                           :
Format settings                          : CABAC / 5 Ref Frames
Format settings, CABAC                   : Yes
Format settings, Reference frames        : 5 frames
Codec ID                                 : V_MPEG4/ISO/AVC
Duration                                 : 1 h 52 min
Bit rate                                 : 14.0 Mb/s
Width                                    : 1 920 pixels
Height                                   : 800 pixels
Display aspect ratio                     : 2.40:1
Frame rate mode                          : Constant
Frame rate                               : 24.000 FPS
Color space                              : YUV
Chroma subsampling                       : 4:2:0
Bit depth                                : 8 bits
Scan type                                : Progressive
Bits/(Pixel*Frame)                       : 0.379
Stream size                              : 11.0 GiB (95%)
Writing library                          : x264 core 161 r3027 4121277
Encoding settings                        : cabac=1 / ref=5 / deblock=1:-3:-3 / analyse=0x3:0x133 / me=esa / subme=11 / psy=1 / psy_rd=1.00:0.00 / mixed_ref=1 / me_range=64 / chroma_me=1 / trellis=2 / 8x8dct=1 / cqm=0 / deadzone=21,11 / fast_pskip=0 / chroma_qp_offset=-2 / threads=25 / lookahead_threads=6 / sliced_threads=0 / nr=0 / decimate=0 / interlaced=0 / bluray_compat=0 / constrained_intra=0 / bframes=12 / b_pyramid=2 / b_adapt=2 / b_bias=0 / direct=3 / weightb=1 / open_gop=0 / weightp=2 / keyint=250 / keyint_min=24 / scenecut=40 / intra_refresh=0 / rc=crf / mbtree=0 / crf=16.0 / qcomp=0.70 / qpmin=0 / qpmax=69 / qpstep=4 / ip_ratio=1.30 / pb_ratio=1.20 / aq=3:0.80
Language                                 : English
Default                                  : Yes
Forced                                   : No
Color range                              : Limited
Color primaries                          : BT.709
Matrix coefficients                      : BT.709

Audio
ID                                       : 2
Format                                   : DTS
Format/Info                              : Digital Theater Systems
Codec ID                                 : A_DTS
Duration                                 : 1 h 52 min
Bit rate mode                            : Constant
Bit rate                                 : 768 kb/s
Channel(s)                               : 6 channels
Channel layout                           : C L R Ls Rs LFE
Sampling rate                            : 48.0 kHz
Frame rate                               : 93.750 FPS (512 SPF)
Bit depth                                : 24 bits
Compression mode                         : Lossy
Stream size                              : 620 MiB (5%)
Language                                 : French
Default                                  : Yes
Forced                                   : No

Text
ID                                       : 3
Format                                   : ASS
Codec ID                                 : S_TEXT/ASS
Codec ID/Info                            : Advanced Sub Station Alpha
Duration                                 : 1 h 49 min
Bit rate                                 : 83 b/s
Count of elements                        : 1418
Compression mode                         : Lossless
Stream size                              : 66.9 KiB (0%)
Language                                 : English
Default                                  : Yes
Forced                                   : No

Menu
00:00:00.000                             : en:CHAPTER01
00:11:05.208                             : en:CHAPTER02
00:19:00.250                             : en:CHAPTER03
00:28:00.000                             : en:CHAPTER04
00:34:16.750                             : en:CHAPTER05
00:48:06.958                             : en:CHAPTER06
00:59:57.792                             : en:CHAPTER07
01:14:34.833                             : en:CHAPTER08
01:22:06.667                             : en:CHAPTER09
01:29:58.500                             : en:CHAPTER10
01:36:37.375                             : en:CHAPTER11
01:43:01.708                             : en:CHAPTER12

[/url]

[/url]

[/url]



                                                                                                                                                                                                        
                                                                                                                                                                                                                                                                                                                                                                                                                                                                                                                                                                                                                                                                                                                                                                                                                                                        
d3d577d5efc23212c5f5e93e26089f46.zip (58.75 KB, 下载次数: 0)

回复

使用道具 举报

小黑屋|百度云资源分享吧 ( 京ICP备15014721号-2 )

本网站所有资源来自网络,如无意中侵犯了您的权益,请发邮件至 [email protected],立即清除相关链接

GMT+8, 2021-4-19 02:06 , Processed in 0.096014 second(s), 23 queries .

Powered by Discuz! X3.2

© 2001-2013 Comsenz Inc.

快速回复 返回顶部 返回列表