百度云资源论坛

 找回密码
 立即注册

两情相悦/桌子上的手 Hands.Across.the.Table.1935.1080p.BluRay.x264.FLAC.2.0-NOGRP ...

[复制链接]
百度云资源 发表于 2021-4-7 13:01:23 | 显示全部楼层 |阅读模式
-->
帖子完整标题:两情相悦/桌子上的手 Hands.Across.the.Table.1935.1080p.BluRay.x264.FLAC.2.0-NOGRP 7.35GB



[/url]

◎译  名 两情相悦/桌子上的手
◎片  名 Hands Across the Table
◎年  代 1935
◎产  地 美国
◎类  别 喜剧 / 爱情
◎语  言 英语,法语
◎上映日期 1935-10-18(美国)
◎IMDb评分  7/10 from 1522 users
◎IMDb链接  
◎豆瓣评分 7.2/10 from 126 users
◎豆瓣链接 
◎片  长 80分钟
◎导  演 米切尔·莱森 Mitchell Leisen
◎编  剧 诺曼·克拉斯娜 Norman Krasna / 比尼亚·德尔马 Vi?a Delmar
◎主  演 卡洛·朗白 Carole Lombard
       弗莱德·麦克莫瑞 Fred MacMurray
       拉尔夫·贝拉米 Ralph Bellamy
       爱丝垂德·奥温 Astrid Allwyn
       露丝·唐纳利 Ruth Donnelly
       玛丽·普雷沃斯特 Marie Prevost

◎标  签 美国 | CaroleLombard | 1930s | 爱情 | 喜剧 | 1935 | 神经喜剧 | Mitchell_Leisen

◎简  介

  蕾姬·艾伦(卡洛·朗白 饰)是一个美容院的修甲师,她从不相信爱情,以嫁给有钱人为自己的人生目标。艾伦·麦克林(拉尔夫·贝拉米 饰)是一个双腿残疾的富翁,他对蕾姬怀有好感,并告诉蕾姬,终于一天她会改变以钱为重的想法,与自己的真命天子坠入爱河。某天,蕾姬离开麦克林先生家时,偶然撞上了一个叫西奥多雷·德鲁(弗莱德·麦克莫瑞 饰)的青年,她以为对方只是个幼稚的乡巴佬,不料最终却发现他是个身价不菲的富二代,更让她惊喜的是,对方居然邀请她一起共进晚餐。蕾姬与德鲁度过欢快的一夜后,以为自己终于可以实现嫁给有钱人的梦想,却不幸得知对方很快就要结婚了,更让她出乎意料的是,晚上喝了太多酒的德鲁醉得不省人事,蕾姬不得不把他搬到自己家中过夜,谁知对方居然就这么赖了下来。
Video
ID                                       : 1
Format                                   : AVC
Format/Info                              : Advanced Video Codec
Format profile                           :
Format settings                          : CABAC / 5 Ref Frames
Format settings, CABAC                   : Yes
Format settings, Reference frames        : 5 frames
Codec ID                                 : V_MPEG4/ISO/AVC
Duration                                 : 1 h 20 min
Bit rate                                 : 12.8 Mb/s
Width                                    : 1 480 pixels
Height                                   : 1 080 pixels
Display aspect ratio                     : 1.370
Frame rate mode                          : Constant
Frame rate                               : 23.976 (24000/1001/189150) FPS
Color space                              : YUV
Chroma subsampling                       : 4:2:0
Bit depth                                : 8 bits
Scan type                                : Progressive
Bits/(Pixel*Frame)                       : 0.334
Stream size                              : 7.17 GiB (97%)
Writing library                          : x264 core 157 r2932 303c484
Encoding settings                        : cabac=1 / ref=5 / deblock=1:-3:-3 / analyse=0x3:0x133 / me=umh / subme=11 / psy=1 / psy_rd=1.02:0.00 / mixed_ref=1 / me_range=32 / chroma_me=1 / trellis=2 / 8x8dct=1 / cqm=0 / deadzone=21,11 / fast_pskip=0 / chroma_qp_offset=-2 / threads=34 / lookahead_threads=8 / sliced_threads=0 / nr=0 / decimate=0 / interlaced=0 / bluray_compat=0 / constrained_intra=0 / bframes=16 / b_pyramid=2 / b_adapt=2 / b_bias=0 / direct=3 / weightb=1 / open_gop=0 / weightp=2 / keyint=250 / keyint_min=23 / scenecut=40 / intra_refresh=0 / rc_lookahead=250 / rc=crf / mbtree=0 / crf=19.2 / qcomp=0.60 / qpmin=0 / qpmax=69 / qpstep=4 / vbv_maxrate=62500 / vbv_bufsize=78125 / crf_max=0.0 / nal_hrd=none / filler=0 / ip_ratio=1.30 / pb_ratio=1.20 / aq=3:0.80
Language                                 : English
Default                                  : Yes
Forced                                   : No
Color range                              : Limited
Color primaries                          : BT.709
Matrix coefficients                      : BT.709

Audio
ID                                       : 2
Format                                   : FLAC
Format/Info                              : Free Lossless Audio Codec
Codec ID                                 : A_FLAC
Duration                                 : 1 h 19 min
Bit rate mode                            : Variable
Bit rate                                 : 316 kb/s
Channel(s)                               : 2 channels
Channel layout                           : L R
Sampling rate                            : 48.0 kHz
Frame rate                               : 11.719 FPS (4096 SPF)
Bit depth                                : 16 bits
Compression mode                         : Lossless
Delay relative to video                  : 11 s 0 ms
Stream size                              : 181 MiB (2%)
Writing library                          : libFLAC 1.2.1 (UTC 2007-09-17)
Language                                 : English
Default                                  : Yes
Forced                                   : No

Text #1
ID                                       : 3
Format                                   : UTF-8
Codec ID                                 : S_TEXT/UTF8
Codec ID/Info                            : UTF-8 Plain Text
Duration                                 : 1 h 18 min
Bit rate                                 : 80 b/s
Count of elements                        : 1320
Stream size                              : 46.2 KiB (0%)
Title                                    : SRT
Language                                 : English
Default                                  : Yes
Forced                                   : No

Text #2
ID                                       : 4
Format                                   : PGS
Muxing mode                              : zlib
Codec ID                                 : S_HDMV/PGS
Codec ID/Info                            : Picture based subtitle format used on BDs/HD-DVDs
Duration                                 : 1 h 18 min
Bit rate                                 : 44.4 kb/s
Count of elements                        : 2494
Stream size                              : 24.9 MiB (0%)
Language                                 : English
Default                                  : No
Forced                                   : No

Menu
00:00:00.000                             : en:Chapter 1
00:09:30.987                             : en:Chapter 2
00:19:07.897                             : en:Chapter 3
00:29:43.490                             : en:Chapter 4
00:40:22.920                             : en:Chapter 5
00:49:53.449                             : en:Chapter 6
01:05:00.647                             : en:Chapter 7
01:15:01.247                             : en:Chapter 8

[/url]

[/url]

[/url]



                                                                                                                                                                                                        
                                                                                                                                                                                                                                                                                                                                                                                                                                                                                                                                                                                                                                                                                                                                                                                                                                                        
9c124bdce43e733f36e5f8d638071066.zip (37.46 KB, 下载次数: 0)

回复

使用道具 举报

小黑屋|百度云资源分享吧 ( 京ICP备15014721号-2 )

本网站所有资源来自网络,如无意中侵犯了您的权益,请发邮件至 [email protected],立即清除相关链接

GMT+8, 2021-4-19 02:21 , Processed in 0.106197 second(s), 23 queries .

Powered by Discuz! X3.2

© 2001-2013 Comsenz Inc.

快速回复 返回顶部 返回列表