百度云资源论坛

 找回密码
 立即注册

吸血狗/狗狗吸血鬼 Vampire.Dog.2012.1080p.BluRay.x264.DD5.1-HANDJOB 7.34GB ... ...

[复制链接]
百度云资源 发表于 2021-4-7 13:01:23 | 显示全部楼层 |阅读模式
-->
帖子完整标题:吸血狗/狗狗吸血鬼 Vampire.Dog.2012.1080p.BluRay.x264.DD5.1-HANDJOB 7.34GB



[/url]

◎译  名 吸血狗/狗狗吸血鬼
◎片  名 Vampire Dog
◎年  代 2012
◎产  地 加拿大
◎类  别 家庭
◎语  言 英语
◎上映日期 2012-02-10
◎IMDb评分  4.2/10 from 1051 users
◎IMDb链接  
◎豆瓣评分 5.5/10 from 360 users
◎豆瓣链接 
◎片  长 90分钟
◎主  演 茱莉亚·莎拉·斯通 Julia Sarah Stone

◎标  签 喜剧 | 狗狗吸血鬼 | 动物 | 狗狗 | 加拿大 | 家庭 | 加拿大电影 | 2012

◎简  介

  ACE是一个普通学校的新生,就像任何其他的新同学一样。直到他96岁的祖父去世,留给ACE一只狗让他照顾。ACE很快发现,这是一只会同他说英文的吸血鬼狗狗。疯狂的科学家沃霍尔博士和她装模作样的助手弗兰克。尝试捕捉吸血鬼狗狗,窃取他的DNA,开发最新的抗衰老技术。
  
  ACE必须保护爷爷留下的狗狗,并和它成为了最好的朋友。
Video
ID                                       : 1
Format                                   : AVC
Format/Info                              : Advanced Video Codec
Format profile                           :
Format settings                          : CABAC / 4 Ref Frames
Format settings, CABAC                   : Yes
Format settings, Reference frames        : 4 frames
Codec ID                                 : V_MPEG4/ISO/AVC
Duration                                 : 1 h 30 min
Bit rate                                 : 10.9 Mb/s
Width                                    : 1 920 pixels
Height                                   : 1 078 pixels
Display aspect ratio                     : 16:9
Frame rate mode                          : Constant
Frame rate                               : 23.976 (24000/1001/189150) FPS
Color space                              : YUV
Chroma subsampling                       : 4:2:0
Bit depth                                : 8 bits
Scan type                                : Progressive
Bits/(Pixel*Frame)                       : 0.220
Stream size                              : 6.93 GiB (94%)
Writing library                          : x264 core 148
Encoding settings                        : cabac=1 / ref=4 / deblock=1:-3:-3 / analyse=0x3:0x133 / me=umh / subme=10 / psy=1 / psy_rd=1.00:0.00 / mixed_ref=1 / me_range=32 / chroma_me=1 / trellis=2 / 8x8dct=1 / cqm=0 / deadzone=21,11 / fast_pskip=0 / chroma_qp_offset=-2 / threads=6 / lookahead_threads=1 / sliced_threads=0 / nr=0 / decimate=0 / interlaced=0 / bluray_compat=0 / constrained_intra=0 / bframes=16 / b_pyramid=2 / b_adapt=2 / b_bias=0 / direct=3 / weightb=1 / open_gop=0 / weightp=2 / keyint=240 / keyint_min=24 / scenecut=40 / intra_refresh=0 / rc_lookahead=60 / rc=crf / mbtree=0 / crf=17.8 / qcomp=0.60 / qpmin=0 / qpmax=69 / qpstep=4 / vbv_maxrate=62500 / vbv_bufsize=78125 / crf_max=0.0 / nal_hrd=none / filler=0 / ip_ratio=1.40 / pb_ratio=1.30 / aq=2:1.00
Default                                  : Yes
Forced                                   : No
Color range                              : Limited
Color primaries                          : BT.709
Transfer characteristics                 : BT.709
Matrix coefficients                      : BT.709

Audio
ID                                       : 2
Format                                   : AC-3
Format/Info                              : Audio Coding 3
Commercial name                          : Dolby Digital
Codec ID                                 : A_AC3
Duration                                 : 1 h 30 min
Bit rate mode                            : Constant
Bit rate                                 : 640 kb/s
Channel(s)                               : 6 channels
Channel layout                           : L R C LFE Ls Rs
Sampling rate                            : 48.0 kHz
Frame rate                               : 31.250 FPS (1536 SPF)
Compression mode                         : Lossy
Stream size                              : 416 MiB (6%)
Language                                 : English
Service kind                             : Complete Main
Default                                  : Yes
Forced                                   : No

Text #1
ID                                       : 3
Format                                   : UTF-8
Codec ID                                 : S_TEXT/UTF8
Codec ID/Info                            : UTF-8 Plain Text
Duration                                 : 1 h 30 min
Bit rate                                 : 57 b/s
Count of elements                        : 1584
Stream size                              : 37.8 KiB (0%)
Language                                 : English
Default                                  : No
Forced                                   : No

Text #2
ID                                       : 4
Format                                   : VobSub
Muxing mode                              : zlib
Codec ID                                 : S_VOBSUB
Codec ID/Info                            : Picture based subtitle format used on DVDs
Duration                                 : 1 h 29 min
Bit rate                                 : 7 167 b/s
Count of elements                        : 981
Stream size                              : 4.58 MiB (0%)
Language                                 : German
Default                                  : No
Forced                                   : No

Menu
00:00:00.000                             : :Chapter 1
00:04:17.132                             : :Chapter 2
00:11:21.598                             : :Chapter 3
00:19:44.350                             : :Chapter 4
00:29:47.411                             : :Chapter 5
00:35:22.245                             : :Chapter 6
00:43:05.708                             : :Chapter 7
00:52:26.810                             : :Chapter 8
00:58:34.970                             : :Chapter 9
01:06:02.667                             : :Chapter 10
01:12:38.896                             : :Chapter 11
01:23:52.236                             : :Chapter 12

[/url]

[/url]

[/url]



                                                                                                                                                                                                        
                                                                                                                                                                                                                                                                                                                                                                                                                                                                                                                                                                                                                                                                                                                                                                                                                                                        
5c8eed94970ecd35a5dd813d5c3beb00.zip (37.36 KB, 下载次数: 0)

回复

使用道具 举报

小黑屋|百度云资源分享吧 ( 京ICP备15014721号-2 )

本网站所有资源来自网络,如无意中侵犯了您的权益,请发邮件至 [email protected],立即清除相关链接

GMT+8, 2021-4-19 01:08 , Processed in 0.168303 second(s), 23 queries .

Powered by Discuz! X3.2

© 2001-2013 Comsenz Inc.

快速回复 返回顶部 返回列表