百度云资源论坛

 找回密码
 立即注册

捍卫正义/警网邪风 Urban.Justice.2007.1080p.BluRay.x264.DD5.1-HANDJOB 8.18GB ... ...

[复制链接]
百度云资源 发表于 2021-4-7 13:01:23 | 显示全部楼层 |阅读模式
-->
帖子完整标题:捍卫正义/警网邪风 Urban.Justice.2007.1080p.BluRay.x264.DD5.1-HANDJOB 8.18GB



[/url]

◎译  名 捍卫正义/警网邪风/都市正义
◎片  名 Urban Justice
◎年  代 2007
◎产  地 美国
◎类  别 动作 / 惊悚
◎语  言 英语
◎上映日期 2007-11-13
◎IMDb评分  5.2/10 from 5101 users
◎IMDb链接  
◎豆瓣评分 5.6/10 from 182 users
◎豆瓣链接 
◎片  长 96 分钟
◎导  演 唐·方李洛伊 Don E. FauntLeRoy
◎主  演 史蒂文·席格 Steven Seagal
       艾迪·格里芬 Eddie Griffin
       卡门塞兰诺 Carmen Serano
       诺姆·卡普顿 Norm Compton
       Trantario Jones
       Ronald Hamilton
       Dave Colon
       Kirby Kleeberg
       Cherlyn Schaefer
       拉内尔·斯托瓦尔 Larnell Stovall
       贾德·约克 Jade Yorker
       克里克·B·R·沃勒尔 Kirk B.R. Woller
       丹尼·特雷霍 Danny Trejo
       托马斯·威尔逊·布朗 Thomas Wilson Brown
       Mikki Padilla

◎标  签 动作 | 美国 | 史蒂文·西格尔 | 美国电影 | 2007 | 电影 | StevenSeagal | 史蒂文·席格

◎简  介

  Seagal扮演一个有着黑暗暴力的过去的男人,向谋杀她儿子的人复仇……
Video
ID                                       : 1
Format                                   : AVC
Format/Info                              : Advanced Video Codec
Format profile                           :
Format settings                          : CABAC / 4 Ref Frames
Format settings, CABAC                   : Yes
Format settings, Reference frames        : 4 frames
Codec ID                                 : V_MPEG4/ISO/AVC
Duration                                 : 1 h 36 min
Bit rate                                 : 11.5 Mb/s
Width                                    : 1 916 pixels
Height                                   : 1 080 pixels
Display aspect ratio                     : 16:9
Frame rate mode                          : Constant
Frame rate                               : 23.976 (24000/1001/189150) FPS
Color space                              : YUV
Chroma subsampling                       : 4:2:0
Bit depth                                : 8 bits
Scan type                                : Progressive
Bits/(Pixel*Frame)                       : 0.232
Stream size                              : 7.74 GiB (95%)
Writing library                          : x264 core 157 r2935 545de2f
Encoding settings                        : cabac=1 / ref=4 / deblock=1:-3:-3 / analyse=0x3:0x133 / me=umh / subme=10 / psy=1 / psy_rd=1.00:0.00 / mixed_ref=1 / me_range=32 / chroma_me=1 / trellis=2 / 8x8dct=1 / cqm=0 / deadzone=21,11 / fast_pskip=0 / chroma_qp_offset=-2 / threads=34 / lookahead_threads=8 / sliced_threads=0 / nr=0 / decimate=0 / interlaced=0 / bluray_compat=0 / constrained_intra=0 / bframes=16 / b_pyramid=2 / b_adapt=2 / b_bias=0 / direct=3 / weightb=1 / open_gop=0 / weightp=2 / keyint=240 / keyint_min=24 / scenecut=40 / intra_refresh=0 / rc_lookahead=60 / rc=crf / mbtree=0 / crf=20.5 / qcomp=0.60 / qpmin=0 / qpmax=69 / qpstep=4 / vbv_maxrate=62500 / vbv_bufsize=78125 / crf_max=0.0 / nal_hrd=none / filler=0 / ip_ratio=1.40 / pb_ratio=1.30 / aq=2:1.00
Default                                  : Yes
Forced                                   : No
Color range                              : Limited
Color primaries                          : BT.709
Transfer characteristics                 : BT.709
Matrix coefficients                      : BT.709

Audio
ID                                       : 2
Format                                   : AC-3
Format/Info                              : Audio Coding 3
Commercial name                          : Dolby Digital
Codec ID                                 : A_AC3
Duration                                 : 1 h 36 min
Bit rate mode                            : Constant
Bit rate                                 : 640 kb/s
Channel(s)                               : 6 channels
Channel layout                           : L R C LFE Ls Rs
Sampling rate                            : 48.0 kHz
Frame rate                               : 31.250 FPS (1536 SPF)
Compression mode                         : Lossy
Stream size                              : 441 MiB (5%)
Language                                 : English
Service kind                             : Complete Main
Default                                  : Yes
Forced                                   : No

Text
ID                                       : 3
Format                                   : PGS
Muxing mode                              : zlib
Codec ID                                 : S_HDMV/PGS
Codec ID/Info                            : Picture based subtitle format used on BDs/HD-DVDs
Duration                                 : 1 h 31 min
Bit rate                                 : 23.8 kb/s
Count of elements                        : 1958
Stream size                              : 15.5 MiB (0%)
Language                                 : German
Default                                  : No
Forced                                   : No

Menu
00:00:00.000                             : :Chapter 1
00:09:23.605                             : :Chapter 2
00:19:09.065                             : :Chapter 3
00:28:53.065                             : :Chapter 4
00:38:19.881                             : :Chapter 5
00:48:14.558                             : :Chapter 6
00:57:36.203                             : :Chapter 7
01:07:20.912                             : :Chapter 8
01:16:49.647                             : :Chapter 9
01:26:46.493                             : :Chapter 10

[/url]

[/url]

[/url]



                                                                                                                                                                                                        
                                                                                                                                                                                                                                                                                                                                                                                                                                                                                                                                                                                                                                                                                                                                                                                                                                                        
0c49df1cf80ff67fdfa218848203b596.zip (41.57 KB, 下载次数: 0)

回复

使用道具 举报

小黑屋|百度云资源分享吧 ( 京ICP备15014721号-2 )

本网站所有资源来自网络,如无意中侵犯了您的权益,请发邮件至 [email protected],立即清除相关链接

GMT+8, 2021-4-19 01:20 , Processed in 0.107574 second(s), 23 queries .

Powered by Discuz! X3.2

© 2001-2013 Comsenz Inc.

快速回复 返回顶部 返回列表