百度云资源论坛

 找回密码
 立即注册

一路向上/布恩和伯哥 Uphill.All.The.Way.1986.1080p.BluRay.x264.FLAC.2.0-NOGRP 7.6 ...

[复制链接]
百度云资源 发表于 2021-4-7 13:01:23 | 显示全部楼层 |阅读模式
-->
帖子完整标题:一路向上/布恩和伯哥 Uphill.All.The.Way.1986.1080p.BluRay.x264.FLAC.2.0-NOGRP 7.67GB



[/url]

◎译  名 一路向上/布恩和伯哥
◎片  名 Uphill All the Way
◎年  代 1986
◎产  地 美国
◎类  别 喜剧
◎语  言 英语
◎上映日期 1986
◎IMDb评分  4.2/10 from 147 users
◎IMDb链接  
◎豆瓣评分 /10 from 0 users
◎豆瓣链接 
◎片  长 86 分钟
◎导  演 弗兰克·Q·多布斯 Frank Q. Dobbs
◎编  剧 弗兰克·Q·多布斯 Frank Q. Dobbs
◎主  演 谢布·伍利 Sheb Wooley
       伯特·雷诺兹 Burt Reynolds
       理查德·保罗 Richard Paul
       Mel Tillis
       杰拉德·萨尔汀 Gailard Sartain
       伊莱恩·乔伊斯 Elaine Joyce
       伯顿·吉列姆 Burton Gilliam
       Ed Geldart
       佩德罗·冈萨雷斯·冈萨雷斯 Pedro Gonzalez Gonzalez
       Jack DeLeon
       伯尔·艾弗斯 Burl Ives
       罗伊·克拉克 Roy Clark
       格伦·坎贝尔 Glen Campbell
       翠施·范·德沃尔 Trish Van Devere
       弗兰克·乔辛 Frank Gorshin

◎标  签 美国

◎简  介

  暂无相关剧情介绍
Video
ID                                       : 1
Format                                   : AVC
Format/Info                              : Advanced Video Codec
Format profile                           :
Format settings                          : CABAC / 4 Ref Frames
Format settings, CABAC                   : Yes
Format settings, Reference frames        : 4 frames
Codec ID                                 : V_MPEG4/ISO/AVC
Duration                                 : 1 h 26 min
Bit rate                                 : 12.3 Mb/s
Width                                    : 1 920 pixels
Height                                   : 1 080 pixels
Display aspect ratio                     : 16:9
Frame rate mode                          : Constant
Frame rate                               : 23.976 (24000/1001/189150) FPS
Color space                              : YUV
Chroma subsampling                       : 4:2:0
Bit depth                                : 8 bits
Scan type                                : Progressive
Bits/(Pixel*Frame)                       : 0.247
Stream size                              : 7.41 GiB (97%)
Writing library                          : x264 core 160 r3000 33f9e14
Encoding settings                        : cabac=1 / ref=4 / deblock=1:-3:-3 / analyse=0x3:0x133 / me=umh / subme=11 / psy=1 / psy_rd=1.02:0.00 / mixed_ref=1 / me_range=32 / chroma_me=1 / trellis=2 / 8x8dct=1 / cqm=0 / deadzone=21,11 / fast_pskip=0 / chroma_qp_offset=-2 / threads=12 / lookahead_threads=3 / sliced_threads=0 / nr=0 / decimate=0 / interlaced=0 / bluray_compat=0 / constrained_intra=0 / bframes=16 / b_pyramid=2 / b_adapt=2 / b_bias=0 / direct=3 / weightb=1 / open_gop=0 / weightp=2 / keyint=250 / keyint_min=23 / scenecut=40 / intra_refresh=0 / rc_lookahead=250 / rc=crf / mbtree=0 / crf=20.8 / qcomp=0.60 / qpmin=0 / qpmax=69 / qpstep=4 / vbv_maxrate=62500 / vbv_bufsize=78125 / crf_max=0.0 / nal_hrd=none / filler=0 / ip_ratio=1.30 / pb_ratio=1.20 / aq=3:0.80
Language                                 : English
Default                                  : Yes
Forced                                   : No
Color range                              : Limited
Color primaries                          : BT.709
Matrix coefficients                      : BT.709

Audio
ID                                       : 2
Format                                   : FLAC
Format/Info                              : Free Lossless Audio Codec
Codec ID                                 : A_FLAC
Duration                                 : 1 h 26 min
Bit rate mode                            : Variable
Bit rate                                 : 422 kb/s
Channel(s)                               : 2 channels
Channel layout                           : L R
Sampling rate                            : 48.0 kHz
Frame rate                               : 11.719 FPS (4096 SPF)
Bit depth                                : 16 bits
Compression mode                         : Lossless
Stream size                              : 261 MiB (3%)
Writing library                          : libFLAC 1.2.1 (UTC 2007-09-17)
Language                                 : English
Default                                  : Yes
Forced                                   : No

Text #1
ID                                       : 3
Format                                   : UTF-8
Codec ID                                 : S_TEXT/UTF8
Codec ID/Info                            : UTF-8 Plain Text
Duration                                 : 1 h 25 min
Bit rate                                 : 67 b/s
Count of elements                        : 1435
Stream size                              : 41.9 KiB (0%)
Title                                    : SRT
Language                                 : English
Default                                  : Yes
Forced                                   : No

Text #2
ID                                       : 4
Format                                   : PGS
Muxing mode                              : zlib
Codec ID                                 : S_HDMV/PGS
Codec ID/Info                            : Picture based subtitle format used on BDs/HD-DVDs
Duration                                 : 1 h 25 min
Bit rate                                 : 25.8 kb/s
Count of elements                        : 3079
Stream size                              : 15.8 MiB (0%)
Language                                 : English
Default                                  : No
Forced                                   : No

Menu
00:00:00.000                             : en:Chapter 1
00:04:26.766                             : en:Chapter 2
00:11:39.031                             : en:Chapter 3
00:18:07.669                             : en:Chapter 4
00:25:25.106                             : en:Chapter 5
00:30:43.925                             : en:Chapter 6
00:37:45.179                             : en:Chapter 7
00:43:22.516                             : en:Chapter 8
00:53:33.960                             : en:Chapter 9
01:03:03.488                             : en:Chapter 10
01:09:23.075                             : en:Chapter 11
01:17:53.210                             : en:Chapter 12
01:23:30.714                             : en:Chapter 13

[/url]

[/url]



                                                                                                                                                                                                        
                                                                                                                                                                                                                                                                                                                                                                                                                                                                                                                                                                                                                                                                                                                                                                                                                                                        
753b45e2ca4b4f414c6857bbe6c84fed.zip (39.04 KB, 下载次数: 0)

回复

使用道具 举报

小黑屋|百度云资源分享吧 ( 京ICP备15014721号-2 )

本网站所有资源来自网络,如无意中侵犯了您的权益,请发邮件至 [email protected],立即清除相关链接

GMT+8, 2021-4-19 01:33 , Processed in 0.111138 second(s), 23 queries .

Powered by Discuz! X3.2

© 2001-2013 Comsenz Inc.

快速回复 返回顶部 返回列表