百度云资源论坛

 找回密码
 立即注册

捷德奥特曼 剧场版:连接吧!心愿!! Ultraman.Geed.the.Movie.Connect.the.Wishes.20 ...

[复制链接]
百度云资源 发表于 2021-4-7 13:01:23 | 显示全部楼层 |阅读模式
-->
帖子完整标题:捷德奥特曼 剧场版:连接吧!心愿!! Ultraman.Geed.the.Movie.Connect.the.Wishes.2018.JAPANESE.1080p.BluRay.x264.FLAC.2.0-NOGRP 6.23GB



[/url]

◎译  名 捷德奥特曼 剧场版:连接吧!心愿!!/Ultraman Geed The Movie: I'll Connect With the Wish!/ウルトラマンジード Ultraman Geed
◎片  名 劇場版ウルトラマンジード:つなぐゼ!願い!!
◎年  代 2018
◎产  地 日本
◎类  别 动作 / 科幻 / 动画
◎语  言 日语
◎上映日期 2018-03-10(日本)
◎IMDb评分  7.3/10 from 79 users
◎IMDb链接  
◎豆瓣评分 6.3/10 from 2542 users
◎豆瓣链接 
◎片  长 90分钟
◎导  演 坂本浩一 Koichi Sakamoto
◎主  演 滨田龙臣 Tatsuomi Hamada
       山本千寻 Chihiro Yamamoto
       长谷川真优 Mayu Hasegawa
       小泽雄太 Yūta Ozawa
       本仮屋唯佳 Yuika Motokariya
       青柳尊哉 Takaya Aoyagi
       石黑英雄 Hideo Ishiguro
       小西克幸 Katsuyuki Konishi
       三森铃子 Suzuko Mimori
       潘惠美 Megumi Han
       浅沼晋太郎 Shintaro Asanuma
       宫野真守 Mamoru Miyano
       绿川光 Hikaru Midorikawa
       神谷浩史 Hiroshi Kamiya
       关智一 Tomokazu Seki
       入野自由 Miyu Irino
       田中秀幸 Hideyuki Tanaka
       池田昌子 Masako Ikeda
       西冈德马 Tokuma Nishioka
       岩田荣庆 Hideyoshi Iwata

◎标  签 我要看捷德剧场版 | 奥特曼 | 剧场版 | 日本 | 特摄 | 科幻 | 动作 | 剧场

◎简  介

  在试图杀死整个宇宙的知识生活的无垠的敌人击退勇士超的力量,甚至是光,幸存下来的严酷命运基德奥特曼面对! 地球的危机消退和数据缩减,欧布奥特曼,伽古拉和赛罗奥特曼现身!
  
  而Riku的热门感觉唤醒了基德进入终极形式的终极决赛!最强的武器·Giga终结者提高节拍!
  
  它继续摧毁星采用智能化的生活居住着巨大的人工智能Girubarisu和,Gyaraku特隆兵团是一个全球性的办法。基德奥特曼=朝仓陆(滨田龙臣),Girubarisu是“红钢”来到地球,并从伽古拉(青柳尊哉)那听到的,它是有线索的南大洋去了天堂·冲绳。会在冲绳岛相见(本假屋唯香)吧,你看通过朝仓陆是基德奥特曼,面对Takuso一个重大使命。在朝仓陆的面前说Kiou超过必要保护地球红凯=欧布奥特曼(石黑英雄)的出现,是把他作为前辈。
  
  在另一方面,攻击冲绳Gyaraku特隆军团开始寻求“深红钢”。基德,欧布,和赛罗奥特曼也去了地球。而要坚持自己的使命,不耐烦基德的行为,是导致在美国奥特曼进一步危机。
  
  基德奥特曼我们做的---它可能停止Girubarisu的强大力量
  
  在地球整个网络攻击,在接近毁灭的时刻,“欲望”的权力带来的基德进一步进化!
Video
ID                                       : 1
Format                                   : AVC
Format/Info                              : Advanced Video Codec
Format profile                           :
Format settings                          : CABAC / 4 Ref Frames
Format settings, CABAC                   : Yes
Format settings, Reference frames        : 4 frames
Codec ID                                 : V_MPEG4/ISO/AVC
Duration                                 : 1 h 12 min
Bit rate                                 : 11.6 Mb/s
Width                                    : 1 920 pixels
Height                                   : 1 080 pixels
Display aspect ratio                     : 16:9
Frame rate mode                          : Constant
Frame rate                               : 23.976 (24000/1001/189150) FPS
Color space                              : YUV
Chroma subsampling                       : 4:2:0
Bit depth                                : 8 bits
Scan type                                : Progressive
Bits/(Pixel*Frame)                       : 0.234
Stream size                              : 5.86 GiB (94%)
Writing library                          : x264 core 157 r2932 303c484
Encoding settings                        : cabac=1 / ref=4 / deblock=1:-3:-3 / analyse=0x3:0x133 / me=umh / subme=11 / psy=1 / psy_rd=1.02:0.00 / mixed_ref=1 / me_range=32 / chroma_me=1 / trellis=2 / 8x8dct=1 / cqm=0 / deadzone=21,11 / fast_pskip=0 / chroma_qp_offset=-2 / threads=34 / lookahead_threads=8 / sliced_threads=0 / nr=0 / decimate=0 / interlaced=0 / bluray_compat=0 / constrained_intra=0 / bframes=16 / b_pyramid=2 / b_adapt=2 / b_bias=0 / direct=3 / weightb=1 / open_gop=0 / weightp=2 / keyint=250 / keyint_min=23 / scenecut=40 / intra_refresh=0 / rc_lookahead=250 / rc=crf / mbtree=0 / crf=19.0 / qcomp=0.60 / qpmin=0 / qpmax=69 / qpstep=4 / vbv_maxrate=62500 / vbv_bufsize=78125 / crf_max=0.0 / nal_hrd=none / filler=0 / ip_ratio=1.30 / pb_ratio=1.20 / aq=3:0.80
Language                                 : English
Default                                  : Yes
Forced                                   : No
Color range                              : Limited
Color primaries                          : BT.709
Matrix coefficients                      : BT.709

Audio
ID                                       : 2
Format                                   : FLAC
Format/Info                              : Free Lossless Audio Codec
Codec ID                                 : A_FLAC
Duration                                 : 1 h 12 min
Bit rate mode                            : Variable
Bit rate                                 : 728 kb/s
Channel(s)                               : 2 channels
Channel layout                           : L R
Sampling rate                            : 48.0 kHz
Frame rate                               : 11.719 FPS (4096 SPF)
Bit depth                                : 16 bits
Compression mode                         : Lossless
Stream size                              : 376 MiB (6%)
Writing library                          : libFLAC 1.2.1 (UTC 2007-09-17)
Language                                 : Japanese
Default                                  : Yes
Forced                                   : No

Text #1
ID                                       : 3
Format                                   : UTF-8
Codec ID                                 : S_TEXT/UTF8
Codec ID/Info                            : UTF-8 Plain Text
Duration                                 : 1 h 11 min
Bit rate                                 : 34 b/s
Count of elements                        : 800
Stream size                              : 18.0 KiB (0%)
Title                                    : SRT
Language                                 : English
Default                                  : Yes
Forced                                   : No

Text #2
ID                                       : 4
Format                                   : PGS
Muxing mode                              : zlib
Codec ID                                 : S_HDMV/PGS
Codec ID/Info                            : Picture based subtitle format used on BDs/HD-DVDs
Duration                                 : 1 h 12 min
Bit rate                                 : 14.1 kb/s
Count of elements                        : 1615
Stream size                              : 7.29 MiB (0%)
Language                                 : English
Default                                  : No
Forced                                   : No

Menu
00:00:00.000                             : en:Chapter 1
00:01:47.149                             : en:Chapter 2
00:06:43.987                             : en:Chapter 3
00:13:39.360                             : en:Chapter 4
00:20:57.631                             : en:Chapter 5
00:29:30.435                             : en:Chapter 6
00:42:46.314                             : en:Chapter 7
00:57:05.339                             : en:Chapter 8
01:07:57.115                             : en:Chapter 9
01:11:46.719                             : en:Chapter 10
01:12:14.205                             : en:Chapter 11

[/url]

[/url]



                                                                                                                                                                                                        
                                                                                                                                                                                                                                                                                                                                                                                                                                                                                                                                                                                                                                                                                                                                                                                                                                                        
ca6a8c10fd5f124112c30e5171a626ed.zip (31.92 KB, 下载次数: 0)

回复

使用道具 举报

小黑屋|百度云资源分享吧 ( 京ICP备15014721号-2 )

本网站所有资源来自网络,如无意中侵犯了您的权益,请发邮件至 [email protected],立即清除相关链接

GMT+8, 2021-4-19 00:55 , Processed in 0.105665 second(s), 23 queries .

Powered by Discuz! X3.2

© 2001-2013 Comsenz Inc.

快速回复 返回顶部 返回列表