百度云资源论坛

 找回密码
 立即注册

丛林噩梦 Turistas.2006.UNRATED.1080p.BluRay.x264.DD5.1-POH 12.09GB

[复制链接]
百度云资源 发表于 2021-4-7 13:01:23 | 显示全部楼层 |阅读模式
-->
帖子完整标题:丛林噩梦 Turistas.2006.UNRATED.1080p.BluRay.x264.DD5.1-POH 12.09GB



[/url]

◎译  名 丛林噩梦/Paradise Lost/Turistas: Holiday of Horror/欢迎来到杀人胜地/游客止步
◎片  名 Turistas
◎年  代 2006
◎产  地 美国
◎类  别 惊悚 / 恐怖
◎语  言 英语,葡萄牙语
◎上映日期 2006-12-01
◎IMDb评分  5.4/10 from 36690 users
◎IMDb链接  
◎豆瓣评分 5.7/10 from 3290 users
◎豆瓣链接 
◎导  演 约翰·斯托克韦尔 John Stockwell
◎主  演 乔什·杜哈明 Josh Duhamel
       梅利莎·乔治 Melissa George
       奥利维亚·王尔德 Olivia Wilde
       碧儿·加勒特 Beau Garrett
       德斯蒙德·奥斯基 Desmond Askew
       露西·哈姆斯 Lucy Ramos
       Miguelito Acosta
       劳尔·古德里斯 Raul Guterres
       Gustav Roth
       Olga Diegues
       Joel Gourdin
       Vanessa Bueno
       约翰·斯托克韦尔 John Stockwell
       玛克辛·巴恩斯 Maxine Bahns
       Miguel Lunardi
       霍伊特·理查德斯 Hoyt Richards
       Agles Steib
       特雷弗·多诺万 Trevor Donovan
       马克斯·布朗 Max Brown

◎标  签 惊悚 | 恐怖 | 美国 | 血腥 | 美国电影 | 游客止步 | 2006 | 恐怖片

◎简  介

  巴西,这个充满激情和浪漫的国家,是无数寻求刺激的青年男女心所向往的人间天堂。巴西东北部地区,一辆载满外国游客的大巴正在蜿蜒曲折的公路上飞驰前行,鲁莽的司机导致车祸发生,游客们被迫困在半山腰。来自美国的亚历克斯(乔什·杜哈明 Josh Duhamel 饰)和妹妹比依(奥莉维娅·维尔德 Olivia Wilde 饰)、好友艾美(Beau Garrett 饰)由此邂逅了来此寻欢作乐的英国人芬(德斯蒙德·奥斯基 Desmond Askew 饰)、莱姆(Max Brown 饰)以及通晓葡语的澳洲美女普璐(梅利莎·乔治 Melissa George 饰)。一行六人不愿在原地浪费时间,于是决定到附近的海滩尽享美好时光。
  
  一夜狂欢,当他们醒来之时,却发现身上的财物尽失,更不知道现在自己身在何处。然而危险仍在向他们逼近,美好的天堂瞬间化作地狱……
Video
ID                                       : 1
Format                                   : AVC
Format/Info                              : Advanced Video Codec
Format profile                           :
Format settings                          : CABAC / 5 Ref Frames
Format settings, CABAC                   : Yes
Format settings, Reference frames        : 5 frames
Codec ID                                 : V_MPEG4/ISO/AVC
Duration                                 : 1 h 35 min
Bit rate                                 : 17.0 Mb/s
Width                                    : 1 920 pixels
Height                                   : 804 pixels
Display aspect ratio                     : 2.40:1
Frame rate mode                          : Constant
Frame rate                               : 23.976 (24000/1001/189150) FPS
Color space                              : YUV
Chroma subsampling                       : 4:2:0
Bit depth                                : 8 bits
Scan type                                : Progressive
Bits/(Pixel*Frame)                       : 0.460
Stream size                              : 11.4 GiB (94%)
Title                                    : POH
Writing library                          : x264 core 161 r3048 b86ae3c
Encoding settings                        : cabac=1 / ref=5 / deblock=1:-3:-3 / analyse=0x3:0x133 / me=umh / subme=10 / psy=1 / psy_rd=1.10:0.00 / mixed_ref=1 / me_range=48 / chroma_me=1 / trellis=2 / 8x8dct=1 / cqm=0 / deadzone=21,11 / fast_pskip=0 / chroma_qp_offset=-2 / threads=25 / lookahead_threads=6 / sliced_threads=0 / nr=0 / decimate=0 / interlaced=0 / bluray_compat=0 / constrained_intra=0 / bframes=10 / b_pyramid=2 / b_adapt=2 / b_bias=0 / direct=3 / weightb=1 / open_gop=0 / weightp=2 / keyint=250 / keyint_min=23 / scenecut=40 / intra_refresh=0 / rc_lookahead=60 / rc=crf / mbtree=0 / crf=20.2 / qcomp=0.65 / qpmin=0 / qpmax=69 / qpstep=4 / vbv_maxrate=62500 / vbv_bufsize=78125 / crf_max=0.0 / nal_hrd=none / filler=0 / ip_ratio=1.28 / pb_ratio=1.20 / aq=3:0.75
Language                                 : English
Default                                  : Yes
Forced                                   : No
Color range                              : Limited
Color primaries                          : BT.709
Transfer characteristics                 : BT.709
Matrix coefficients                      : BT.709

Audio
ID                                       : 2
Format                                   : E-AC-3
Format/Info                              : Enhanced AC-3
Commercial name                          : Dolby Digital Plus
Codec ID                                 : A_EAC3
Duration                                 : 1 h 35 min
Bit rate mode                            : Constant
Bit rate                                 : 1 024 kb/s
Channel(s)                               : 6 channels
Channel layout                           : L R C LFE Ls Rs
Sampling rate                            : 48.0 kHz
Frame rate                               : 31.250 FPS (1536 SPF)
Compression mode                         : Lossy
Stream size                              : 702 MiB (6%)
Title                                    : DD+5.1
Language                                 : English
Service kind                             : Complete Main
Default                                  : Yes
Forced                                   : No

Text #1
ID                                       : 3
Format                                   : UTF-8
Codec ID                                 : S_TEXT/UTF8
Codec ID/Info                            : UTF-8 Plain Text
Duration                                 : 1 h 30 min
Bit rate                                 : 37 b/s
Count of elements                        : 798
Stream size                              : 25.0 KiB (0%)
Language                                 : English
Default                                  : No
Forced                                   : No

Text #2
ID                                       : 4
Format                                   : UTF-8
Codec ID                                 : S_TEXT/UTF8
Codec ID/Info                            : UTF-8 Plain Text
Duration                                 : 1 h 30 min
Bit rate                                 : 40 b/s
Count of elements                        : 823
Stream size                              : 27.0 KiB (0%)
Title                                    : latin
Language                                 : Spanish
Default                                  : No
Forced                                   : No

Menu
00:00:00.000                             : en:Main Titles / Bus Accident
00:06:23.503                             : en:No Photos
00:10:38.758                             : en:Welcome to Paradise
00:14:59.769                             : en:New Gringos
00:19:56.023                             : enance Party
00:25:56.175                             : en:Robbed
00:27:23.971                             : en:Kidnapped
00:29:34.309                             : en:Town Mob
00:33:58.031                             : en:Walking to Safety
00:37:59.981                             : enife Lesson
00:40:00.935                             : en:Underwater Caves
00:47:49.820                             : en:Mystery House
00:55:33.784                             : en:\"Run\"
01:00:12.813                             : en:Nothing Personal
01:04:17.474                             : en:Giving Back
01:07:21.491                             : en:Escape
01:15:35.025                             : enursuit in the Caves
01:23:43.598                             : en:Survival
01:28:47.484                             : en:\"Take the Plane\"
01:31:19.220                             : en:End Titles
01:35:50.662                             : en:Chapter 21

[/url]

[/url]

[/url]



                                                                                                                                                                                                        
                                                                                                                                                                                                                                                                                                                                                                                                                                                                                                                                                                                                                                                                                                                                                                                                                                                        
4254395e8bf20e1c1af70f77800e816f.zip (61.13 KB, 下载次数: 0)

回复

使用道具 举报

小黑屋|百度云资源分享吧 ( 京ICP备15014721号-2 )

本网站所有资源来自网络,如无意中侵犯了您的权益,请发邮件至 [email protected],立即清除相关链接

GMT+8, 2021-4-19 01:07 , Processed in 0.094723 second(s), 23 queries .

Powered by Discuz! X3.2

© 2001-2013 Comsenz Inc.

快速回复 返回顶部 返回列表