百度云资源论坛

 找回密码
 立即注册

东京日出 Tokyo.Sunrise.2015.JAPANESE.1080p.BluRay.x264-HANDJOB 5.51GB

[复制链接]
百度云资源 发表于 2021-4-7 13:01:23 | 显示全部楼层 |阅读模式
-->
帖子完整标题:东京日出 Tokyo.Sunrise.2015.JAPANESE.1080p.BluRay.x264-HANDJOB 5.51GB



[/url]

◎译  名 东京日出
◎片  名 走れ、絶望に追いつかれない速さで
◎年  代 2015
◎产  地 日本
◎类  别 剧情
◎语  言 日语
◎上映日期 2016-06-04(日本)
◎IMDb评分  5.4/10 from 19 users
◎IMDb链接  
◎豆瓣评分 6.7/10 from 148 users
◎豆瓣链接 
◎片  长 83分钟
◎导  演 中川龙太郎 Ry?tar? Nakagawa
◎主  演 仲野太贺 Taiga Nagano
       小林竜树 Ry?ju Kobayashi
       黑川芽以 Mei Kurokawa
       藤原令子 Reiko Fujiwara
       松浦祐也 Y?ya Matsuura
       井端珠里 Juri Ibata

◎标  签 日本 | 太贺 | 日本电影 | 日影 | 2016 | 黑川芽以 | 太賀 | 成长

◎简  介

  「愛の小さな歴史」に続き、今作で2年連続の東京国際映画祭出品となった中川龍太郎監督の自伝的作品。漣と青春時代を共有した親友の薫が死に、薫が描き遺した絵には中学時代の同級生「斉木環奈」の姿があった。親友の死を受け入れられない漣は、薫にとって大切な存在であり続けた環奈に薫の死を知らせるため、彼女の元へ向かう決意をする。主人公?漣役に「ほとりの朔子」「桐島、部活やめるってよ」の太賀。中川監督の前作「愛の小さな歴史」から引き続いての出演となる小林竜樹、「ドライブイン蒲生」「愛を語れば変態ですか」の黒川芽以らが脇を固める。
Video
ID                                       : 1
Format                                   : AVC
Format/Info                              : Advanced Video Codec
Format profile                           :
Format settings                          : CABAC / 4 Ref Frames
Format settings, CABAC                   : Yes
Format settings, Reference frames        : 4 frames
Codec ID                                 : V_MPEG4/ISO/AVC
Duration                                 : 1 h 23 min
Bit rate                                 : 9 237 kb/s
Width                                    : 1 920 pixels
Height                                   : 1 038 pixels
Display aspect ratio                     : 1.85:1
Frame rate mode                          : Constant
Frame rate                               : 23.976 (24000/1001/189150) FPS
Color space                              : YUV
Chroma subsampling                       : 4:2:0
Bit depth                                : 8 bits
Scan type                                : Progressive
Bits/(Pixel*Frame)                       : 0.193
Stream size                              : 5.36 GiB (97%)
Writing library                          : x264 core 157 r2935 545de2f
Encoding settings                        : cabac=1 / ref=4 / deblock=1:-3:-3 / analyse=0x3:0x133 / me=umh / subme=10 / psy=1 / psy_rd=1.00:0.00 / mixed_ref=1 / me_range=32 / chroma_me=1 / trellis=2 / 8x8dct=1 / cqm=0 / deadzone=21,11 / fast_pskip=0 / chroma_qp_offset=-2 / threads=12 / lookahead_threads=3 / sliced_threads=0 / nr=0 / decimate=0 / interlaced=0 / bluray_compat=0 / constrained_intra=0 / bframes=16 / b_pyramid=2 / b_adapt=2 / b_bias=0 / direct=3 / weightb=1 / open_gop=0 / weightp=1 / keyint=240 / keyint_min=24 / scenecut=40 / intra_refresh=0 / rc_lookahead=60 / rc=crf / mbtree=0 / crf=20.0 / qcomp=0.60 / qpmin=0 / qpmax=69 / qpstep=4 / vbv_maxrate=62500 / vbv_bufsize=78125 / crf_max=0.0 / nal_hrd=none / filler=0 / ip_ratio=1.40 / pb_ratio=1.30 / aq=2:1.00
Default                                  : Yes
Forced                                   : No
Color range                              : Limited
Color primaries                          : BT.709
Transfer characteristics                 : BT.709
Matrix coefficients                      : BT.709

Audio
ID                                       : 2
Format                                   : AAC LC
Format/Info                              : Advanced Audio Codec Low Complexity
Codec ID                                 : A_AAC-2
Duration                                 : 1 h 23 min
Bit rate                                 : 235 kb/s
Channel(s)                               : 2 channels
Channel layout                           : L R
Sampling rate                            : 48.0 kHz
Frame rate                               : 46.875 FPS (1024 SPF)
Compression mode                         : Lossy
Stream size                              : 140 MiB (2%)
Language                                 : Japanese
Default                                  : Yes
Forced                                   : No

Text #1
ID                                       : 3
Format                                   : UTF-8
Codec ID                                 : S_TEXT/UTF8
Codec ID/Info                            : UTF-8 Plain Text
Duration                                 : 1 h 16 min
Bit rate                                 : 20 b/s
Count of elements                        : 477
Stream size                              : 11.3 KiB (0%)
Language                                 : English
Default                                  : Yes
Forced                                   : No

Text #2
ID                                       : 4
ID in the original source medium         : 4608 (0x1200)
Format                                   : PGS
Muxing mode                              : zlib
Codec ID                                 : S_HDMV/PGS
Codec ID/Info                            : Picture based subtitle format used on BDs/HD-DVDs
Duration                                 : 1 h 18 min
Bit rate                                 : 15.8 kb/s
Count of elements                        : 1070
Stream size                              : 8.81 MiB (0%)
Language                                 : Japanese
Default                                  : No
Forced                                   : No
Original source medium                   : Blu-ray

Menu
00:00:00.000                             : :Chapter 1
00:09:00.540                             : :Chapter 2
00:17:22.250                             : :Chapter 3
00:31:36.978                             : :Chapter 4
00:42:48.483                             : :Chapter 5
00:49:14.910                             : :Chapter 6
00:56:28.427                             : :Chapter 7
01:03:55.707                             : :Chapter 8
01:10:04.367                             : :Chapter 9
01:20:16.603                             : :Chapter 10

[/url]

[/url]

[/url]



                                                                                                                                                                                                        
                                                                                                                                                                                                                                                                                                                                                                                                                                                                                                                                                                                                                                                                                                                                                                                                                                                        
a434991f2804c293bd2f44da29a42626.zip (28.24 KB, 下载次数: 0)

回复

使用道具 举报

小黑屋|百度云资源分享吧 ( 京ICP备15014721号-2 )

本网站所有资源来自网络,如无意中侵犯了您的权益,请发邮件至 [email protected],立即清除相关链接

GMT+8, 2021-4-19 01:18 , Processed in 0.097428 second(s), 23 queries .

Powered by Discuz! X3.2

© 2001-2013 Comsenz Inc.

快速回复 返回顶部 返回列表