百度云资源论坛

 找回密码
 立即注册

大贼龙虎斗/长途跋涉的骑手 The.Long.Riders.1980.REMASTERED.1080p.BluRay.x264.DTS- ...

[复制链接]
百度云资源 发表于 2021-4-7 13:01:23 | 显示全部楼层 |阅读模式
-->
帖子完整标题:大贼龙虎斗/长途跋涉的骑手 The.Long.Riders.1980.REMASTERED.1080p.BluRay.x264.DTS-mintHD 10.49GB



[/url]

◎译  名 大贼龙虎斗/长途跋涉的骑手/长骑者
◎片  名 The Long Riders
◎年  代 1980
◎产  地 美国
◎类  别 传记 / 历史 / 犯罪 / 西部
◎语  言 瑞典语,英语
◎上映日期 1981-06-20
◎IMDb评分  7/10 from 10045 users
◎IMDb链接  
◎豆瓣评分 6.7/10 from 81 users
◎豆瓣链接 
◎片  长 99 分钟
◎导  演 沃尔特·希尔 Walter Hill
◎编  剧 比尔·布赖登 Bill Bryden / 詹姆斯·基彻 James Keach / 斯泰西·基齐 Stacy Keach
◎主  演 丹尼斯·奎德 Dennis Quaid
       兰迪·奎德 Randy Quaid
       林·沙烨 Lin Shaye
       阿兰·格拉夫 Allan Graf

◎标  签 西部 | 美国 | 西部片 | 美国电影 | 1980s | 1980 | 犯罪 | 沃尔特希尔

◎简  介

  沃尔特·希尔编导的风格化西部片,剧情交代粗枝大叶,但镜头分解动作却拍得十分细致,动作场面也拍得十分血腥暴力。故事描述詹姆斯、米勒、杨格等三个美国西部犯罪中著名的兄弟家族在年轻时闯荡江湖的事迹,其最大特色是真的请来了明星兄弟来饰演剧中的兄弟,包括:大卫·卡拉丁、基思·卡拉丁、罗伯特·卡拉丁分饰杨格三兄弟;丹尼斯·伦迪和丹尼斯·奎德分别饰米勒两兄弟;斯泰西·基彻和詹姆斯·基彻分饰詹姆斯两兄弟,使片中人的兄弟情更显得水乳交融。此外,瑞库德气势澎湃的电影配乐也很精彩。

◎获奖情况

  第33届戛纳电影节 ?(1980)
  主竞赛单元金棕榈奖(提名) 沃尔特·希尔
Video
ID                                       : 1
Format                                   : AVC
Format/Info                              : Advanced Video Codec
Format profile                           :
Format settings                          : CABAC / 4 Ref Frames
Format settings, CABAC                   : Yes
Format settings, Reference frames        : 4 frames
Codec ID                                 : V_MPEG4/ISO/AVC
Duration                                 : 1 h 39 min
Bit rate                                 : 13.0 Mb/s
Width                                    : 1 918 pixels
Height                                   : 1 040 pixels
Display aspect ratio                     : 1.85:1
Frame rate mode                          : Constant
Frame rate                               : 23.976 (24000/1001/189150) FPS
Color space                              : YUV
Chroma subsampling                       : 4:2:0
Bit depth                                : 8 bits
Scan type                                : Progressive
Bits/(Pixel*Frame)                       : 0.272
Stream size                              : 9.02 GiB (86%)
Writing library                          : x264 core 157 r2935 545de2f
Encoding settings                        : cabac=1 / ref=4 / deblock=1:-3:-3 / analyse=0x3:0x133 / me=umh / subme=10 / psy=1 / psy_rd=1.00:0.00 / mixed_ref=1 / me_range=32 / chroma_me=1 / trellis=2 / 8x8dct=1 / cqm=0 / deadzone=21,11 / fast_pskip=0 / chroma_qp_offset=-2 / threads=24 / lookahead_threads=6 / sliced_threads=0 / nr=0 / decimate=0 / interlaced=0 / bluray_compat=0 / constrained_intra=0 / bframes=16 / b_pyramid=2 / b_adapt=2 / b_bias=0 / direct=3 / weightb=1 / open_gop=0 / weightp=2 / keyint=240 / keyint_min=24 / scenecut=40 / intra_refresh=0 / rc_lookahead=60 / rc=2pass / mbtree=0 / bitrate=13000 / ratetol=1.0 / qcomp=0.60 / qpmin=0 / qpmax=69 / qpstep=4 / cplxblur=20.0 / qblur=0.5 / vbv_maxrate=62500 / vbv_bufsize=78125 / nal_hrd=none / filler=0 / ip_ratio=1.40 / pb_ratio=1.30 / aq=2:1.00
Default                                  : Yes
Forced                                   : No
Color range                              : Limited
Color primaries                          : BT.709
Transfer characteristics                 : BT.709
Matrix coefficients                      : BT.709

Audio #1
ID                                       : 2
Format                                   : DTS
Format/Info                              : Digital Theater Systems
Codec ID                                 : A_DTS
Duration                                 : 1 h 39 min
Bit rate mode                            : Constant
Bit rate                                 : 1 509 kb/s
Channel(s)                               : 6 channels
Channel layout                           : C L R Ls Rs LFE
Sampling rate                            : 48.0 kHz
Frame rate                               : 93.750 FPS (512 SPF)
Bit depth                                : 24 bits
Compression mode                         : Lossy
Stream size                              : 1.05 GiB (10%)
Title                                    : DTS 5.1
Language                                 : English
Default                                  : Yes
Forced                                   : No

Audio #2
ID                                       : 3
Format                                   : FLAC
Format/Info                              : Free Lossless Audio Codec
Codec ID                                 : A_FLAC
Duration                                 : 1 h 39 min
Bit rate mode                            : Variable
Bit rate                                 : 508 kb/s
Channel(s)                               : 2 channels
Channel layout                           : L R
Sampling rate                            : 48.0 kHz
Frame rate                               : 11.719 FPS (4096 SPF)
Bit depth                                : 16 bits
Compression mode                         : Lossless
Stream size                              : 361 MiB (3%)
Title                                    : FLAC 2.0 Original Mono
Writing library                          : libFLAC 1.3.3 (UTC 2019-08-04)
Language                                 : English
Default                                  : No
Forced                                   : No

Audio #3
ID                                       : 4
Format                                   : AAC LC
Format/Info                              : Advanced Audio Codec Low Complexity
Codec ID                                 : A_AAC-2
Duration                                 : 1 h 39 min
Bit rate                                 : 96.0 kb/s
Channel(s)                               : 2 channels
Channel layout                           : L R
Sampling rate                            : 48.0 kHz
Frame rate                               : 46.875 FPS (1024 SPF)
Compression mode                         : Lossy
Delay relative to video                  : 20 ms
Stream size                              : 68.2 MiB (1%)
Title                                    : Commentary with film historians Howard S. Berger, Steve Mitchell, and Nathaniel Thompson
Language                                 : English
Default                                  : No
Forced                                   : No

Text #1
ID                                       : 5
Format                                   : UTF-8
Codec ID                                 : S_TEXT/UTF8
Codec ID/Info                            : UTF-8 Plain Text
Duration                                 : 1 h 36 min
Bit rate                                 : 37 b/s
Count of elements                        : 732
Stream size                              : 26.5 KiB (0%)
Title                                    : English
Language                                 : English
Default                                  : Yes
Forced                                   : No

Text #2
ID                                       : 6
Format                                   : UTF-8
Codec ID                                 : S_TEXT/UTF8
Codec ID/Info                            : UTF-8 Plain Text
Duration                                 : 1 h 36 min
Bit rate                                 : 37 b/s
Count of elements                        : 754
Stream size                              : 26.9 KiB (0%)
Title                                    : English SDH
Language                                 : English
Default                                  : No
Forced                                   : No

Text #3
ID                                       : 7
Format                                   : UTF-8
Codec ID                                 : S_TEXT/UTF8
Codec ID/Info                            : UTF-8 Plain Text
Duration                                 : 1 h 37 min
Bit rate                                 : 35 b/s
Count of elements                        : 665
Stream size                              : 25.2 KiB (0%)
Title                                    : Danish
Language                                 : Danish
Default                                  : No
Forced                                   : No

Text #4
ID                                       : 8
Format                                   : UTF-8
Codec ID                                 : S_TEXT/UTF8
Codec ID/Info                            : UTF-8 Plain Text
Duration                                 : 1 h 32 min
Bit rate                                 : 31 b/s
Count of elements                        : 557
Stream size                              : 21.7 KiB (0%)
Title                                    : Dutch
Language                                 : Dutch
Default                                  : No
Forced                                   : No

Text #5
ID                                       : 9
Format                                   : UTF-8
Codec ID                                 : S_TEXT/UTF8
Codec ID/Info                            : UTF-8 Plain Text
Duration                                 : 1 h 37 min
Bit rate                                 : 33 b/s
Count of elements                        : 638
Stream size                              : 23.7 KiB (0%)
Title                                    : French
Language                                 : French
Default                                  : No
Forced                                   : No

Text #6
ID                                       : 10
Format                                   : UTF-8
Codec ID                                 : S_TEXT/UTF8
Codec ID/Info                            : UTF-8 Plain Text
Duration                                 : 1 h 37 min
Bit rate                                 : 34 b/s
Count of elements                        : 658
Stream size                              : 24.5 KiB (0%)
Title                                    : German
Language                                 : German
Default                                  : No
Forced                                   : No

Text #7
ID                                       : 11
Format                                   : UTF-8
Codec ID                                 : S_TEXT/UTF8
Codec ID/Info                            : UTF-8 Plain Text
Duration                                 : 1 h 37 min
Bit rate                                 : 32 b/s
Count of elements                        : 656
Stream size                              : 22.8 KiB (0%)
Title                                    : Italian
Language                                 : Italian
Default                                  : No
Forced                                   : No

Text #8
ID                                       : 12
Format                                   : UTF-8
Codec ID                                 : S_TEXT/UTF8
Codec ID/Info                            : UTF-8 Plain Text
Duration                                 : 1 h 34 min
Bit rate                                 : 33 b/s
Count of elements                        : 642
Stream size                              : 23.2 KiB (0%)
Title                                    : Norwegian
Language                                 : Norwegian
Default                                  : No
Forced                                   : No

Text #9
ID                                       : 13
Format                                   : UTF-8
Codec ID                                 : S_TEXT/UTF8
Codec ID/Info                            : UTF-8 Plain Text
Duration                                 : 1 h 37 min
Bit rate                                 : 40 b/s
Count of elements                        : 808
Stream size                              : 28.7 KiB (0%)
Title                                    : Romanian
Language                                 : Romanian
Default                                  : No
Forced                                   : No

Text #10
ID                                       : 14
Format                                   : UTF-8
Codec ID                                 : S_TEXT/UTF8
Codec ID/Info                            : UTF-8 Plain Text
Duration                                 : 1 h 38 min
Bit rate                                 : 35 b/s
Count of elements                        : 747
Stream size                              : 26.1 KiB (0%)
Title                                    : Spanish
Language                                 : Spanish
Default                                  : No
Forced                                   : No

Text #11
ID                                       : 15
Format                                   : UTF-8
Codec ID                                 : S_TEXT/UTF8
Codec ID/Info                            : UTF-8 Plain Text
Duration                                 : 1 h 37 min
Bit rate                                 : 36 b/s
Count of elements                        : 694
Stream size                              : 25.7 KiB (0%)
Title                                    : Swedish
Language                                 : Swedish
Default                                  : No
Forced                                   : No

Menu
00:00:00.000                             : en:Chapter 1
00:06:56.666                             : en:Chapter 2
00:11:27.270                             : en:Chapter 3
00:17:54.407                             : en:Chapter 4
00:29:04.243                             : en:Chapter 5
00:31:34.309                             : en:Chapter 6
00:36:59.301                             : en:Chapter 7
00:43:04.165                             : en:Chapter 8
00:46:06.347                             : en:Chapter 9
00:50:22.478                             : en:Chapter 10
01:00:45.475                             : en:Chapter 11
01:05:25.171                             : en:Chapter 12
01:09:29.582                             : en:Chapter 13
01:21:43.524                             : en:Chapter 14
01:28:46.697                             : en:Chapter 15
01:34:46.765                             : en:Chapter 16

[/url]

[/url]

[/url]



                                                                                                                                                                                                        
                                                                                                                                                                                                                                                                                                                                                                                                                                                                                                                                                                                                                                                                                                                                                                                                                                                        
a23c5eb5d8acc6424e356d779920aa14.zip (53.16 KB, 下载次数: 0)

回复

使用道具 举报

小黑屋|百度云资源分享吧 ( 京ICP备15014721号-2 )

本网站所有资源来自网络,如无意中侵犯了您的权益,请发邮件至 [email protected],立即清除相关链接

GMT+8, 2021-4-19 01:32 , Processed in 0.103679 second(s), 23 queries .

Powered by Discuz! X3.2

© 2001-2013 Comsenz Inc.

快速回复 返回顶部 返回列表