百度云资源论坛

 找回密码
 立即注册

龍鳳智多星 The.Intellectual.Trio.1985.CHINESE.1080p.BluRay.x264.FLAC.2.0-PTH 8.5 ...

[复制链接]
百度云资源 发表于 2021-4-7 13:01:23 | 显示全部楼层 |阅读模式
-->
帖子完整标题:龍鳳智多星 The.Intellectual.Trio.1985.CHINESE.1080p.BluRay.x264.FLAC.2.0-PTH 8.50GB



[/url]

◎译  名 龙凤智多星/The Intellectual Trio
◎片  名 龍鳳智多星
◎年  代 1985
◎产  地 中国香港
◎类  别 剧情 / 喜剧 / 动作 / 犯罪
◎语  言 粤语
◎上映日期 1985-06-06(中国香港)
◎IMDb评分  5.7/10 from 55 users
◎IMDb链接  
◎豆瓣评分 6.6/10 from 3282 users
◎豆瓣链接 
◎片  长 89 分钟
◎导  演 黎应就 Guy Lai
◎编  剧 王家卫 Kar Wai Wong / 黄炳耀 Barry Wong
◎主  演 张国荣 Leslie Cheung
       林忆莲 Sandy Lam
       楼南光 Billy Lau
       倪淑君 Suk Kwan Ni
       刘雅丽 Alice Lau
       萧伟强 Kenneth Siu
       吴浣仪 Yuen Yee Ng

◎标  签 张国荣 | 香港 | 香港电影 | 王家卫 | 林忆莲 | 喜剧 | 哥哥 | 1984

◎简  介

  西门汀(楼南光 饰)和张荣(张国荣 饰)是同行,两人不打不相识,之后成为了好友。一次偶然中,他们遇见了名为单(林忆莲 饰)和双(倪淑君 饰)的扒手姐妹,两个大男人迅速坠入了情网,无奈“落花有意流水无情”。
  
  米安(左颂升 饰)是入行多年的职业杀手,一次执行任务之时,单和双竟然从中作梗,夺走了米安的“劳动果实”,愤怒之中,米安决定穷追不舍。身陷麻烦之中的双转而向西门汀求助,可单却不幸中了米安的埋伏,最终惨遭杀害。情同手足的姐妹被害,双悲痛欲绝,她发誓一定要为单报仇,不达到此目的誓不罢休,而在此过程中,少不了西门汀和张荣的帮助。
Video
ID                                       : 1
Format                                   : AVC
Format/Info                              : Advanced Video Codec
Format profile                           :
Format settings                          : CABAC / 4 Ref Frames
Format settings, CABAC                   : Yes
Format settings, Reference frames        : 4 frames
Codec ID                                 : V_MPEG4/ISO/AVC
Duration                                 : 1 h 29 min
Bit rate                                 : 13.1 Mb/s
Width                                    : 1 920 pixels
Height                                   : 1 080 pixels
Display aspect ratio                     : 16:9
Frame rate mode                          : Constant
Frame rate                               : 24.000 FPS
Color space                              : YUV
Chroma subsampling                       : 4:2:0
Bit depth                                : 8 bits
Scan type                                : Progressive
Bits/(Pixel*Frame)                       : 0.262
Stream size                              : 8.20 GiB (97%)
Writing library                          : x264 core 161 r3048+53M 0749c36 t_mod_New [(8 & 10) X86_64]
Encoding settings                        : cabac=1 / ref=4 / deblock=1:-3:-3 / analyse=0x3:0x133 / me=umh / subme=11 / psy=1 / fade_compensate=0.00 / psy_rd=1.00:0.00 / mixed_ref=1 / me_range=48 / chroma_me=1 / trellis=2 / 8x8dct=1 / cqm=0 / deadzone=21,11 / fast_pskip=0 / chroma_qp_offset=-3 / threads=24 / lookahead_threads=6 / sliced_threads=0 / nr=0 / decimate=0 / interlaced=0 / bluray_compat=0 / constrained_intra=0 / fgo=0 / bframes=11 / b_pyramid=2 / b_adapt=2 / b_bias=0 / direct=3 / weightb=1 / open_gop=0 / weightp=2 / keyint=240 / keyint_min=1 / scenecut=40 / intra_refresh=0 / rc_lookahead=72 / rc=crf / mbtree=0 / crf=19.0000 / qcomp=0.60 / qpmin=0:0:0 / qpmax=69:69:69 / qpstep=4 / vbv_maxrate=62500 / vbv_bufsize=78125 / crf_max=0.0 / nal_hrd=none / filler=0 / ip_ratio=1.40 / pb_ratio=1.30 / aq=3:0.60 / aq-sensitivity=10.00 / aq-factor=1.00:1.00:1.00 / aq2=0 / aq3=0
Language                                 : English
Default                                  : Yes
Forced                                   : No

Audio
ID                                       : 2
Format                                   : FLAC
Format/Info                              : Free Lossless Audio Codec
Codec ID                                 : A_FLAC
Duration                                 : 1 h 29 min
Bit rate mode                            : Variable
Bit rate                                 : 425 kb/s
Channel(s)                               : 2 channels
Channel layout                           : L R
Sampling rate                            : 48.0 kHz
Frame rate                               : 11.719 FPS (4096 SPF)
Bit depth                                : 16 bits
Compression mode                         : Lossless
Stream size                              : 274 MiB (3%)
Title                                    : Cantonese
Writing library                          : libFLAC 1.2.1 (UTC 2007-09-17)
Language                                 : Chinese
Default                                  : Yes
Forced                                   : No

Text #1
ID                                       : 3
Format                                   : UTF-8
Codec ID                                 : S_TEXT/UTF8
Codec ID/Info                            : UTF-8 Plain Text
Duration                                 : 1 h 20 min
Bit rate                                 : 44 b/s
Count of elements                        : 957
Stream size                              : 26.3 KiB (0%)
Title                                    : SRT
Language                                 : English
Default                                  : Yes
Forced                                   : No

Text #2
ID                                       : 4
Format                                   : PGS
Muxing mode                              : zlib
Codec ID                                 : S_HDMV/PGS
Codec ID/Info                            : Picture based subtitle format used on BDs/HD-DVDs
Duration                                 : 1 h 28 min
Bit rate                                 : 31.6 kb/s
Count of elements                        : 2432
Stream size                              : 20.0 MiB (0%)
Title                                    : chs
Language                                 : Chinese
Default                                  : No
Forced                                   : No

Text #3
ID                                       : 5
Format                                   : PGS
Muxing mode                              : zlib
Codec ID                                 : S_HDMV/PGS
Codec ID/Info                            : Picture based subtitle format used on BDs/HD-DVDs
Duration                                 : 1 h 28 min
Bit rate                                 : 33.9 kb/s
Count of elements                        : 2432
Stream size                              : 21.5 MiB (0%)
Title                                    : cht
Language                                 : Chinese
Default                                  : No
Forced                                   : No

Text #4
ID                                       : 6
Format                                   : PGS
Muxing mode                              : zlib
Codec ID                                 : S_HDMV/PGS
Codec ID/Info                            : Picture based subtitle format used on BDs/HD-DVDs
Duration                                 : 1 h 20 min
Bit rate                                 : 29.0 kb/s
Count of elements                        : 1802
Stream size                              : 16.8 MiB (0%)
Title                                    : eng
Language                                 : English
Default                                  : No
Forced                                   : No

Menu
00:00:00.000                             : :绗?01 绔?
00:06:01.458                             : :绗?02 绔?
00:20:25.792                             : :绗?03 绔?
00:25:26.458                             : :绗?04 绔?
00:30:05.583                             : :绗?05 绔?
00:37:53.708                             : :绗?06 绔?
00:48:05.208                             : :绗?07 绔?
00:56:07.125                             : :绗?08 绔?
01:06:43.167                             : :绗?09 绔?
01:11:50.667                             : :绗?10 绔?
01:17:30.708                             : :绗?11 绔?
01:23:25.000                             : :绗?12 绔?

[/url]

[/url]



                                                                                                                                                                                                        
                                                                                                                                                                                                                                                                                                                                                                                                                                                                                                                                                                                                                                                                                                                                                                                                                                                        
690e63bc5cff0f687a2f4d0de3e81a45.zip (43.19 KB, 下载次数: 0)

回复

使用道具 举报

小黑屋|百度云资源分享吧 ( 京ICP备15014721号-2 )

本网站所有资源来自网络,如无意中侵犯了您的权益,请发邮件至 [email protected],立即清除相关链接

GMT+8, 2021-4-19 01:43 , Processed in 0.095833 second(s), 23 queries .

Powered by Discuz! X3.2

© 2001-2013 Comsenz Inc.

快速回复 返回顶部 返回列表