百度云资源论坛

 找回密码
 立即注册

银熊/大老千与鳄鱼头 Silver.Bears.1977.1080p.BluRay.x264.FLAC.1.0-FIZ 15.48GB ... ...

[复制链接]
百度云资源 发表于 2021-4-7 13:01:23 | 显示全部楼层 |阅读模式
-->
帖子完整标题:银熊/大老千与鳄鱼头 Silver.Bears.1977.1080p.BluRay.x264.FLAC.1.0-FIZ 15.48GB



[/url]

◎译  名 银熊/大老千与鳄鱼头
◎片  名 Silver Bears
◎年  代 1978
◎产  地 英国
◎类  别 喜剧 / 犯罪
◎语  言 英语
◎上映日期 1978-04-21
◎IMDb评分  6.1/10 from 876 users
◎IMDb链接  
◎豆瓣评分 /10 from 0 users
◎豆瓣链接 
◎片  长 113 分钟
◎导  演 伊凡·帕瑟 Ivan Passer
◎编  剧 皮特·斯通 Peter Stone / Paul Erdman
◎主  演 迈克尔·凯恩 Michael Caine
       斯碧尔·谢波德 Cybill Shepherd
       路易斯·乔丹 Louis Jourdan
       斯特凡·奥德朗 Stéphane Audran
       托尼·马夏 Tony Mascia
       穆斯塔什 Moustache
       史蒂夫·普利塔斯 Steve Plytas
       大卫·沃纳 David Warner
       汤姆·史莫勒斯 Tom Smothers
       Mike Falco
       爱德华·杜克 Edward Duke
       杰瑞米·克莱德 Jeremy Clyde
       奈吉尔·帕特里克 Nigel Patrick
       查尔斯·格雷 Charles Gray
       马丁·鲍尔萨姆 Martin Balsam
       乔斯·雅克兰德 Joss Ackland
       布鲁斯·博阿 Bruce Boa
       菲尔·布朗 Phil Brown
       杰·雷诺 Jay Leno

◎标  签 《剧本》 | 英美 | 喜剧 | d/l | UK | Passer | M英国 | Ivan_Passer

◎简  介

  暂无相关剧情介绍
Video
ID                                       : 1
Format                                   : AVC
Format/Info                              : Advanced Video Codec
Format profile                           :
Format settings                          : CABAC / 5 Ref Frames
Format settings, CABAC                   : Yes
Format settings, Reference frames        : 5 frames
Codec ID                                 : V_MPEG4/ISO/AVC
Duration                                 : 1 h 52 min
Bit rate                                 : 19.3 Mb/s
Width                                    : 1 920 pixels
Height                                   : 818 pixels
Display aspect ratio                     : 2.35:1
Frame rate mode                          : Constant
Frame rate                               : 24.000 FPS
Color space                              : YUV
Chroma subsampling                       : 4:2:0
Bit depth                                : 8 bits
Scan type                                : Progressive
Bits/(Pixel*Frame)                       : 0.513
Stream size                              : 15.2 GiB (98%)
Writing library                          : x264 core 161 r3027 4121277
Encoding settings                        : cabac=1 / ref=5 / deblock=1:-3:-3 / analyse=0x3:0x133 / me=umh / subme=11 / psy=1 / psy_rd=1.00:0.00 / mixed_ref=1 / me_range=32 / chroma_me=1 / trellis=2 / 8x8dct=1 / cqm=0 / deadzone=21,11 / fast_pskip=0 / chroma_qp_offset=-2 / threads=18 / lookahead_threads=4 / sliced_threads=0 / nr=0 / decimate=1 / interlaced=0 / bluray_compat=0 / constrained_intra=0 / bframes=16 / b_pyramid=2 / b_adapt=2 / b_bias=0 / direct=3 / weightb=1 / open_gop=0 / weightp=2 / keyint=250 / keyint_min=24 / scenecut=40 / intra_refresh=0 / rc_lookahead=250 / rc=crf / mbtree=0 / crf=18.2 / qcomp=0.60 / qpmin=0 / qpmax=69 / qpstep=4 / vbv_maxrate=62500 / vbv_bufsize=78125 / crf_max=0.0 / nal_hrd=none / filler=0 / ip_ratio=1.40 / pb_ratio=1.30 / aq=3:0.80
Language                                 : English
Default                                  : Yes
Forced                                   : No

Audio
ID                                       : 2
Format                                   : FLAC
Format/Info                              : Free Lossless Audio Codec
Codec ID                                 : A_FLAC
Duration                                 : 1 h 52 min
Bit rate mode                            : Variable
Bit rate                                 : 303 kb/s
Channel(s)                               : 1 channel
Sampling rate                            : 48.0 kHz
Frame rate                               : 11.719 FPS (4096 SPF)
Bit depth                                : 16 bits
Compression mode                         : Lossless
Stream size                              : 244 MiB (2%)
Writing library                          : libFLAC 1.2.1 (UTC 2007-09-17)
Language                                 : English
Default                                  : Yes
Forced                                   : No

Text
ID                                       : 3
Format                                   : PGS
Muxing mode                              : zlib
Codec ID                                 : S_HDMV/PGS
Codec ID/Info                            : Picture based subtitle format used on BDs/HD-DVDs
Duration                                 : 1 h 50 min
Bit rate                                 : 32.8 kb/s
Count of elements                        : 3102
Stream size                              : 25.9 MiB (0%)
Language                                 : French
Default                                  : No
Forced                                   : No

Menu
00:00:00.000                             : en:Chapter 01
00:09:42.625                             : en:Chapter 02
00:17:41.625                             : en:Chapter 03
00:25:51.125                             : en:Chapter 04
00:35:32.250                             : en:Chapter 05
00:43:38.542                             : en:Chapter 06
00:53:28.625                             : en:Chapter 07
01:03:55.500                             : en:Chapter 08
01:12:35.208                             : en:Chapter 09
01:21:00.667                             : en:Chapter 10
01:30:04.292                             : en:Chapter 11
01:41:00.125                             : en:Chapter 12
[/url][/url]



                                                                                                                                                                                                        
                                                                                                                                                                                                                                                                                                                                                                                                                                                                                                                                                                                                                                                                                                                                                                                                                                                        
6317e2f3cbff4924cfa7125df00ed7d0.zip (78.07 KB, 下载次数: 0)

回复

使用道具 举报

小黑屋|百度云资源分享吧 ( 京ICP备15014721号-2 )

本网站所有资源来自网络,如无意中侵犯了您的权益,请发邮件至 [email protected],立即清除相关链接

GMT+8, 2021-4-19 01:54 , Processed in 0.105658 second(s), 23 queries .

Powered by Discuz! X3.2

© 2001-2013 Comsenz Inc.

快速回复 返回顶部 返回列表