百度云资源论坛

 找回密码
 立即注册

灿实也多福 Lucky.Chan-sil.2019.KOREAN.1080p.BluRay.x264.DTS-WMD 11.71GB

[复制链接]
百度云资源 发表于 2021-4-7 13:01:23 | 显示全部楼层 |阅读模式
-->
帖子完整标题:灿实也多福 Lucky.Chan-sil.2019.KOREAN.1080p.BluRay.x264.DTS-WMD 11.71GB



[/url]

◎译  名 灿实也多福/Lucky Chan-sil/冷室里有很多走廊/福气啦!灿实(台)
◎片  名 ???? ?? ??
◎年  代 2019
◎产  地 韩国
◎类  别 剧情 / 爱情
◎语  言 韩语
◎上映日期 2019-10-05(釜山电影节) / 2020-03-05(韩国)
◎IMDb评分  6.6/10 from 136 users
◎IMDb链接  
◎豆瓣评分 6.6/10 from 1325 users
◎豆瓣链接 
◎片  长 96分钟
◎导  演 金初熙 Cho-hee Kim
◎编  剧 金初熙 Cho-hee Kim
◎主  演 姜末琴 Mal-Geum Kang
       尹汝贞 Yeo-jeong Yoon
       金永敏 Young-min Kim
       尹胜雅 Seung-ah Yun
       裴侑蓝 Bae Yoo-ram
       徐尚沅 Sang Won Seo
       文惠仁 Hyein Moon
       李慧雅 Hyea Lee
       崔华静 Hwa-jeong Choi
       李英珍 Young-jin Lee
       申锡镐 Seok-ho Shin

◎标  签 韩国 | 剧情 | 黑色幽默 | 文艺 | 爱情 | 独立 | 音乐剧 | 音乐

◎简  介

  没有男人也没有家的导演李灿实在糟糕演员苏菲的家里做着保姆的工作。
  
  有一天,苏菲的法语老师金荣进入了灿实的生活中,随之登场的叫做“张国荣”的男人的身份也让剧情进入了新的高潮。房东奶奶暖心的举动也无时无刻温暖着灿实。之前一直忙前忙后的灿实在丢了工作以后也将迎来自己的春天吗?

◎获奖情况

  第41届韩国电影青龙奖 ?(2020)
  最佳新人导演(提名) 金初熙
  最佳新人女演员 姜末琴
  
  第56届百想艺术大赏 ?(2020)
  电影类最佳男配角(提名) 金永敏
  电影类最佳新人女演员 姜末琴
  电影类最佳新人导演(提名) 金初熙
Video
ID                                       : 1
Format                                   : AVC
Format/Info                              : Advanced Video Codec
Format profile                           :
Format settings                          : CABAC / 4 Ref Frames
Format settings, CABAC                   : Yes
Format settings, Reference frames        : 4 frames
Codec ID                                 : V_MPEG4/ISO/AVC
Duration                                 : 1 h 35 min
Bit rate                                 : 15.9 Mb/s
Width                                    : 1 920 pixels
Height                                   : 1 040 pixels
Display aspect ratio                     : 1.85:1
Frame rate mode                          : Constant
Frame rate                               : 23.976 (24000/1001/189150) FPS
Color space                              : YUV
Chroma subsampling                       : 4:2:0
Bit depth                                : 8 bits
Scan type                                : Progressive
Bits/(Pixel*Frame)                       : 0.332
Stream size                              : 10.6 GiB (91%)
Title                                    : Lucky.Chan-sil.2019.1080p.BluRay.DTS.x264-WMD
Writing library                          : x264 core 161 r3048+53M 0749c36 t_mod_New [(8 & 10) X86_64]
Encoding settings                        : cabac=1 / ref=4 / deblock=1:-3:-3 / analyse=0x3:0x133 / me=umh / subme=10 / psy=1 / fade_compensate=0.00 / psy_rd=1.02:0.00 / mixed_ref=1 / me_range=32 / chroma_me=1 / trellis=2 / 8x8dct=1 / cqm=0 / deadzone=21,11 / fast_pskip=0 / chroma_qp_offset=-2 / threads=12 / lookahead_threads=2 / sliced_threads=0 / nr=0 / decimate=0 / interlaced=0 / bluray_compat=0 / constrained_intra=0 / fgo=0 / bframes=7 / b_pyramid=2 / b_adapt=2 / b_bias=0 / direct=3 / weightb=1 / open_gop=0 / weightp=2 / keyint=250 / keyint_min=23 / scenecut=40 / intra_refresh=0 / rc_lookahead=60 / rc=crf / mbtree=0 / crf=16.0000 / qcomp=0.62 / qpmin=0:0:0 / qpmax=69:69:69 / qpstep=4 / vbv_maxrate=62500 / vbv_bufsize=78125 / crf_max=0.0 / nal_hrd=none / filler=0 / ip_ratio=1.30 / pb_ratio=1.20 / aq=3:0.80 / aq-sensitivity=10.00 / aq-factor=1.00:1.00:1.00 / aq2=0 / aq3=0
Language                                 : Korean
Default                                  : Yes
Forced                                   : No
Color range                              : Limited
Color primaries                          : BT.709
Matrix coefficients                      : BT.709

Audio #1
ID                                       : 2
Format                                   : DTS
Format/Info                              : Digital Theater Systems
Codec ID                                 : A_DTS
Duration                                 : 1 h 35 min
Bit rate mode                            : Constant
Bit rate                                 : 1 509 kb/s
Channel(s)                               : 6 channels
Channel layout                           : C L R Ls Rs LFE
Sampling rate                            : 48.0 kHz
Frame rate                               : 93.750 FPS (512 SPF)
Bit depth                                : 24 bits
Compression mode                         : Lossy
Stream size                              : 1.01 GiB (9%)
Language                                 : Korean
Default                                  : Yes
Forced                                   : No

Audio #2
ID                                       : 3
Format                                   : AAC LC
Format/Info                              : Advanced Audio Codec Low Complexity
Codec ID                                 : A_AAC-2
Duration                                 : 1 h 35 min
Bit rate                                 : 88.4 kb/s
Channel(s)                               : 2 channels
Channel layout                           : L R
Sampling rate                            : 48.0 kHz
Frame rate                               : 46.875 FPS (1024 SPF)
Compression mode                         : Lossy
Stream size                              : 60.6 MiB (1%)
Title                                    : Commentary with Director Kim Cho-hee and Actors Kang Mal-geum, Kim Young-min
Language                                 : Korean
Default                                  : No
Forced                                   : No

Text #1
ID                                       : 4
Format                                   : UTF-8
Codec ID                                 : S_TEXT/UTF8
Codec ID/Info                            : UTF-8 Plain Text
Duration                                 : 1 h 35 min
Bit rate                                 : 37 b/s
Count of elements                        : 1038
Stream size                              : 26.0 KiB (0%)
Language                                 : English
Default                                  : Yes
Forced                                   : No

Text #2
ID                                       : 5
Format                                   : PGS
Muxing mode                              : zlib
Codec ID                                 : S_HDMV/PGS
Codec ID/Info                            : Picture based subtitle format used on BDs/HD-DVDs
Duration                                 : 1 h 35 min
Bit rate                                 : 20.1 kb/s
Count of elements                        : 1876
Stream size                              : 13.8 MiB (0%)
Language                                 : Korean
Default                                  : No
Forced                                   : No

Menu
00:00:00.000                             : en:Chapter 01
00:05:17.067                             : en:Chapter 02
00:13:50.830                             : en:Chapter 03
00:21:05.222                             : en:Chapter 04
00:28:17.029                             : en:Chapter 05
00:34:32.445                             : en:Chapter 06
00:38:31.935                             : en:Chapter 07
00:43:57.426                             : en:Chapter 08
00:47:18.753                             : en:Chapter 09
00:54:51.788                             : en:Chapter 10
01:00:27.749                             : en:Chapter 11
01:07:07.398                             : en:Chapter 12
01:14:40.768                             : en:Chapter 13
01:19:40.275                             : en:Chapter 14
01:25:34.212                             : en:Chapter 15
01:31:41.037                             : en:Chapter 16

[/url]

[/url]

[/url]



                                                                                                                                                                                                        
                                                                                                                                                                                                                                                                                                                                                                                                                                                                                                                                                                                                                                                                                                                                                                                                                                                        
4acb2507eb1fac1163fb8d9d53f1cf0d.zip (59.21 KB, 下载次数: 0)

回复

使用道具 举报

小黑屋|百度云资源分享吧 ( 京ICP备15014721号-2 )

本网站所有资源来自网络,如无意中侵犯了您的权益,请发邮件至 [email protected],立即清除相关链接

GMT+8, 2021-4-19 02:03 , Processed in 0.103065 second(s), 23 queries .

Powered by Discuz! X3.2

© 2001-2013 Comsenz Inc.

快速回复 返回顶部 返回列表