百度云资源论坛

 找回密码
 立即注册

蚱蜢 Grasshopper.2015.JAPANESE.1080p.BluRay.x264.DTS-iKiW 14.48GB

[复制链接]
百度云资源 发表于 2021-4-7 13:01:23 | 显示全部楼层 |阅读模式
-->
帖子完整标题:蚱蜢 Grasshopper.2015.JAPANESE.1080p.BluRay.x264.DTS-iKiW 14.48GB



[/url]

◎译  名 蚱蜢/Grasshopper/Gurasuhoppa
◎片  名 グラスホッパー
◎年  代 2015
◎产  地 日本
◎类  别 剧情
◎语  言 日语
◎上映日期 2015-11-07(日本)
◎IMDb评分  5.5/10 from 286 users
◎IMDb链接  
◎豆瓣评分 6.2/10 from 6484 users
◎豆瓣链接 
◎导  演 泷本智行 Tomoyuki Takimoto
◎编  剧 青岛武  Takeshi Aoshima / 伊坂幸太郎 Kotaro Isaka
◎主  演 生田斗真 T?ma Ikuta
       浅野忠信 Tadanobu Asano
       山田凉介 Ry?suke Yamada
       麻生久美子 Kumiko Aso
       波瑠 Haru
       菜菜绪 Nanao
       村上淳 Jun Murakami
       宇崎龙童 Ry?d? Uzaki
       金儿宪史 Norihito Kaneko
       吉冈秀隆 Hidetaka Yoshioka
       石桥莲司 Renji Ishibashi
       佐津川爱美 Aimi Satsukawa
       佐藤贡三 K?z? Sat?

◎标  签 生田斗真 | 日本 | 日本电影 | 山田涼介 | 伊坂幸太郎 | 日影 | 浅野忠信 | 2015

◎简  介

  繁华闹市区,一名戾气十足的男子(金儿宪史 饰)被人推入滚滚车流,碾压身亡。此人是拥有黑道背景企业芙洛莱茵的寺原会长(石桥莲司 饰)的公子,两年前曾驾车冲入人群造成大规模伤亡,却凭借老爹的势力全身而退。任职于芙洛莱茵的铃木(生田斗真 饰)目睹车祸一幕,他的爱人当年就死在对方车轮之下,原本想亲手复仇的他此刻却被卷入难以预料的漩涡之中。附近高楼上,受雇于寺原的神秘杀手鲸(浅野忠信 饰)正怂恿猎物自杀,而楼下被称为蝉(山田凉介 饰)的冷血杀手则接到介绍人岩西(村上淳 饰)的指示,准备杀死鲸。寺原公子之死,让全然没有关系的几个人搅在一起,命运难测……
  
  本片根据伊坂幸太郎2004年发表的同名小说改编。
Video
ID                                       : 1
Format                                   : AVC
Format/Info                              : Advanced Video Codec
Format profile                           :
Format settings                          : CABAC / 4 Ref Frames
Format settings, CABAC                   : Yes
Format settings, Reference frames        : 4 frames
Codec ID                                 : V_MPEG4/ISO/AVC
Duration                                 : 1 h 59 min
Bit rate                                 : 15.8 Mb/s
Width                                    : 1 920 pixels
Height                                   : 1 036 pixels
Display aspect ratio                     : 1.85:1
Frame rate mode                          : Constant
Frame rate                               : 23.976 (24000/1001/189150) FPS
Color space                              : YUV
Chroma subsampling                       : 4:2:0
Bit depth                                : 8 bits
Scan type                                : Progressive
Bits/(Pixel*Frame)                       : 0.332
Stream size                              : 13.2 GiB (91%)
Language                                 : Japanese
Default                                  : Yes
Forced                                   : No
Color range                              : Limited
Matrix coefficients                      : BT.709

Audio
ID                                       : 2
Format                                   : DTS
Format/Info                              : Digital Theater Systems
Codec ID                                 : A_DTS
Duration                                 : 1 h 59 min
Bit rate mode                            : Constant
Bit rate                                 : 1 509 kb/s
Channel(s)                               : 6 channels
Channel layout                           : C L R Ls Rs LFE
Sampling rate                            : 48.0 kHz
Frame rate                               : 93.750 FPS (512 SPF)
Bit depth                                : 16 bits
Compression mode                         : Lossy
Stream size                              : 1.26 GiB (9%)
Language                                 : Japanese
Default                                  : Yes
Forced                                   : No

Text #1
ID                                       : 3
Format                                   : UTF-8
Codec ID                                 : S_TEXT/UTF8
Codec ID/Info                            : UTF-8 Plain Text
Duration                                 : 1 h 52 min
Bit rate                                 : 28 b/s
Count of elements                        : 878
Stream size                              : 23.6 KiB (0%)
Title                                    : SRT
Language                                 : English
Default                                  : Yes
Forced                                   : No

Text #2
ID                                       : 4
Format                                   : ASS
Codec ID                                 : S_TEXT/ASS
Codec ID/Info                            : Advanced Sub Station Alpha
Duration                                 : 1 h 52 min
Bit rate                                 : 60 b/s
Count of elements                        : 964
Compression mode                         : Lossless
Stream size                              : 49.3 KiB (0%)
Language                                 : Chinese
Default                                  : No
Forced                                   : No

Menu
00:00:00.000                             : en:00:00:00.000
00:08:16.162                             : en:00:08:16.162
00:13:30.434                             : en:00:13:30.434
00:16:35.369                             : en:00:16:35.369
00:24:41.688                             : en:00:24:41.688
00:31:04.112                             : en:00:31:04.112
00:43:37.072                             : en:00:43:37.072
00:53:00.802                             : en:00:53:00.802
01:02:21.904                             : en:01:02:21.904
01:09:33.169                             : en:01:09:33.169
01:16:50.522                             : en:01:16:50.522
01:26:14.794                             : en:01:26:14.794
01:33:28.811                             : en:01:33:28.811
01:46:13.367                             : en:01:46:13.367
01:54:36.536                             : en:01:54:36.536
01:59:33.166                             : en:01:59:33.166

[/url]

[/url]

[/url]



                                                                                                                                                                                                        
                                                                                                                                                                                                                                                                                                                                                                                                                                                                                                                                                                                                                                                                                                                                                                                                                                                        
48e7647c50e0fbb46f462a88e063eb49.zip (73.04 KB, 下载次数: 0)

回复

使用道具 举报

小黑屋|百度云资源分享吧 ( 京ICP备15014721号-2 )

本网站所有资源来自网络,如无意中侵犯了您的权益,请发邮件至 [email protected],立即清除相关链接

GMT+8, 2021-4-19 02:25 , Processed in 0.107377 second(s), 23 queries .

Powered by Discuz! X3.2

© 2001-2013 Comsenz Inc.

快速回复 返回顶部 返回列表