百度云资源论坛

 找回密码
 立即注册

灵与肉 Body.and.Soul.1981.1080p.BluRay.x264.FLAC.2.0-NOGRP 10.64GB

[复制链接]
百度云资源 发表于 2021-4-7 13:01:23 | 显示全部楼层 |阅读模式
-->
帖子完整标题:灵与肉 Body.and.Soul.1981.1080p.BluRay.x264.FLAC.2.0-NOGRP 10.64GB



[/url]

◎译  名 灵与肉
◎片  名 Body and Soul
◎年  代 1981
◎产  地 美国
◎类  别 剧情
◎语  言 英语
◎上映日期 1982-12-30
◎IMDb评分  4.5/10 from 277 users
◎IMDb链接  
◎豆瓣评分 7.6/10 from 108 users
◎豆瓣链接 
◎片  长 109 分钟
◎编  剧 莱昂·伊萨克·肯尼迪 Leon Isaac Kennedy
◎主  演 莱昂·伊萨克·肯尼迪 Leon Isaac Kennedy
       Azizi Johari
       Jimmy Lennon Sr.
       Gilbert Lewis
       John Sherrod
       迈克尔·V·格佐 Michael V. Gazzo
       乔治·佩恩 George Payne
       丹尼·韦尔斯 Danny Wells
       Laurie Senit
       Rosanne Katon
       Jayne Kennedy
       梅儿·威尔斯 Mel Welles
       佩里·朗 Perry Lang
       彼特·劳福德 Peter Lawford
       欧拉·蕾 Ola Ray
       多米尼克·巴托 Dominic Barto
       DeForest Covan
       约翰尼·布朗 Johnny Brown
       亚历克斯·加瑞尔 Alex Garcia
       Ingrid Greer
       穆罕默德·阿里 Muhammad Ali

◎标  签 拳击 | 灵与欲 | 美国 | 美国电影 | 1982 | 电影 | 运动 | 动作

◎简  介

  A shattering story of corruption, violence and temptation...
Video
ID                                       : 1
Format                                   : AVC
Format/Info                              : Advanced Video Codec
Format profile                           :
Format settings                          : CABAC / 4 Ref Frames
Format settings, CABAC                   : Yes
Format settings, Reference frames        : 4 frames
Codec ID                                 : V_MPEG4/ISO/AVC
Duration                                 : 1 h 45 min
Bit rate                                 : 13.7 Mb/s
Width                                    : 1 920 pixels
Height                                   : 1 040 pixels
Display aspect ratio                     : 1.85:1
Frame rate mode                          : Constant
Frame rate                               : 23.976 (24000/1001/189150) FPS
Color space                              : YUV
Chroma subsampling                       : 4:2:0
Bit depth                                : 8 bits
Scan type                                : Progressive
Bits/(Pixel*Frame)                       : 0.286
Stream size                              : 10.1 GiB (95%)
Writing library                          : x264 core 157 r2932 303c484
Encoding settings                        : cabac=1 / ref=4 / deblock=1:-3:-3 / analyse=0x3:0x133 / me=umh / subme=11 / psy=1 / psy_rd=1.02:0.00 / mixed_ref=1 / me_range=32 / chroma_me=1 / trellis=2 / 8x8dct=1 / cqm=0 / deadzone=21,11 / fast_pskip=0 / chroma_qp_offset=-2 / threads=32 / lookahead_threads=8 / sliced_threads=0 / nr=0 / decimate=0 / interlaced=0 / bluray_compat=0 / constrained_intra=0 / bframes=16 / b_pyramid=2 / b_adapt=2 / b_bias=0 / direct=3 / weightb=1 / open_gop=0 / weightp=2 / keyint=250 / keyint_min=23 / scenecut=40 / intra_refresh=0 / rc_lookahead=250 / rc=crf / mbtree=0 / crf=20.2 / qcomp=0.60 / qpmin=0 / qpmax=69 / qpstep=4 / vbv_maxrate=62500 / vbv_bufsize=78125 / crf_max=0.0 / nal_hrd=none / filler=0 / ip_ratio=1.30 / pb_ratio=1.20 / aq=3:0.80
Language                                 : English
Default                                  : Yes
Forced                                   : No
Color range                              : Limited
Color primaries                          : BT.709
Matrix coefficients                      : BT.709

Audio
ID                                       : 2
Format                                   : FLAC
Format/Info                              : Free Lossless Audio Codec
Codec ID                                 : A_FLAC
Duration                                 : 1 h 45 min
Bit rate mode                            : Variable
Bit rate                                 : 751 kb/s
Channel(s)                               : 2 channels
Channel layout                           : L R
Sampling rate                            : 48.0 kHz
Frame rate                               : 11.719 FPS (4096 SPF)
Bit depth                                : 24 bits
Compression mode                         : Lossless
Stream size                              : 566 MiB (5%)
Writing library                          : libFLAC 1.2.1 (UTC 2007-09-17)
Language                                 : English
Default                                  : Yes
Forced                                   : No

Text #1
ID                                       : 3
Format                                   : UTF-8
Codec ID                                 : S_TEXT/UTF8
Codec ID/Info                            : UTF-8 Plain Text
Duration                                 : 1 h 41 min
Bit rate                                 : 60 b/s
Count of elements                        : 1545
Stream size                              : 44.8 KiB (0%)
Title                                    : SRT
Language                                 : English
Default                                  : Yes
Forced                                   : No

Text #2
ID                                       : 4
Format                                   : PGS
Muxing mode                              : zlib
Codec ID                                 : S_HDMV/PGS
Codec ID/Info                            : Picture based subtitle format used on BDs/HD-DVDs
Bit rate                                 : 0 b/s
Count of elements                        : 0
Stream size                              : 0.00 Byte (0%)
Language                                 : English
Default                                  : No
Forced                                   : No

Menu
00:00:00.000                             : en:Chapter 1
00:08:37.726                             : en:Chapter 2
00:15:06.489                             : en:Chapter 3
00:21:48.390                             : en:Chapter 4
00:30:23.739                             : en:Chapter 5
00:41:28.695                             : en:Chapter 6
00:53:34.044                             : en:Chapter 7
01:01:31.688                             : en:Chapter 8
01:09:29.999                             : en:Chapter 9
01:19:58.002                             : en:Chapter 10
01:29:59.895                             : en:Chapter 11
01:42:56.420                             : en:Chapter 12
01:45:21.607                             : en:Chapter 13

[/url]

[/url]

[/url]



                                                                                                                                                                                                        
                                                                                                                                                                                                                                                                                                                                                                                                                                                                                                                                                                                                                                                                                                                                                                                                                                                        
9070898c0341eacd9126209d0f3967ee.zip (53.85 KB, 下载次数: 0)

回复

使用道具 举报

小黑屋|百度云资源分享吧 ( 京ICP备15014721号-2 )

本网站所有资源来自网络,如无意中侵犯了您的权益,请发邮件至 [email protected],立即清除相关链接

GMT+8, 2021-4-19 01:44 , Processed in 0.110080 second(s), 23 queries .

Powered by Discuz! X3.2

© 2001-2013 Comsenz Inc.

快速回复 返回顶部 返回列表