百度云资源论坛

 找回密码
 立即注册

妙想天书 Bickford.Shmecklers.Cool.Ideas.2006.1080p.BluRay.x264.DD2.0-mintHD 6.92 ...

[复制链接]
百度云资源 发表于 2021-4-8 01:03:31 | 显示全部楼层 |阅读模式
-->
帖子完整标题:妙想天书 Bickford.Shmecklers.Cool.Ideas.2006.1080p.BluRay.x264.DD2.0-mintHD 6.92GB



[/url]

◎译  名 妙想天书
◎片  名 Bickford Shmeckler's Cool Ideas
◎年  代 2006
◎产  地 美国
◎类  别 喜剧 / 爱情
◎语  言 英语
◎上映日期 2007-02-08
◎IMDb评分  5.7/10 from 3216 users
◎IMDb链接  
◎豆瓣评分 5.1/10 from 106 users
◎豆瓣链接 
◎片  长 Germany: 79 分钟(European Film Market)
◎主  演 Natalie Garza
       里德·斯科特 Reid Scott
       小J.B.古曼 J.B. Ghuman Jr.
       妮科尔加尔萨 Nicole Garza
       Mycole Metcalf
       马吉纳·托娃 Mageina Tovah
       迪翁·瑞奇蒙德 Deon Richmond
       蒂凡尼·多庞特 Tiffany Dupont
       马修·里沃德 Matthew Lillard
       吉妮薇芙·克泰西 Genevieve Cortese
       约翰·赵 John Cho
       托马斯·列农 Thomas Lennon
       奥利维亚·王尔德 Olivia Wilde
       西蒙·赫尔伯格 Simon Helberg
       克里斯·韦兹 Chris Weitz
       派屈克·福吉特 Patrick Fugit
       切瑞·海恩斯 Cheryl Hines
       罗伯特·本·加兰特 Robert Ben Garant
       尼克·科里罗西 Nick Corirossi
       弗兰·克朗茨 Fran Kranz
       格雷格·皮特斯 Greg Pitts
       韦斯·拉姆齐 Wes Ramsey
       克拉克·格雷格 Clark Gregg

◎标  签 美国 | 青春 | 喜剧 | 爱情 | 美国电影 | 妙想天书 | 2006 | 我看过的英语电影

◎简  介

  美国派导演Weitz兄弟的新作,一部搞怪校园喜剧。Bickford是个自闭的书呆子,智商奇高却从不与人沟通。然而某天当写满他新奇创意的笔记本被性感捣蛋女Sarah偷走后,Bickford被迫走进人群,想办法把书追回来,然后就是昏天暗地的性、药、摇滚和狂欢闹剧上演....
Video
ID                                       : 1
Format                                   : AVC
Format/Info                              : Advanced Video Codec
Format profile                           :
Format settings                          : CABAC / 4 Ref Frames
Format settings, CABAC                   : Yes
Format settings, Reference frames        : 4 frames
Codec ID                                 : V_MPEG4/ISO/AVC
Duration                                 : 1 h 26 min
Bit rate                                 : 11.0 Mb/s
Width                                    : 1 920 pixels
Height                                   : 1 080 pixels
Display aspect ratio                     : 16:9
Frame rate mode                          : Constant
Frame rate                               : 23.976 (24000/1001/189150) FPS
Color space                              : YUV
Chroma subsampling                       : 4:2:0
Bit depth                                : 8 bits
Scan type                                : Progressive
Bits/(Pixel*Frame)                       : 0.221
Stream size                              : 6.68 GiB (97%)
Writing library                          : x264 core 157 r2935 545de2f
Encoding settings                        : cabac=1 / ref=4 / deblock=1:-3:-3 / analyse=0x3:0x133 / me=umh / subme=10 / psy=1 / psy_rd=1.00:0.00 / mixed_ref=1 / me_range=32 / chroma_me=1 / trellis=2 / 8x8dct=1 / cqm=0 / deadzone=21,11 / fast_pskip=0 / chroma_qp_offset=-2 / threads=24 / lookahead_threads=6 / sliced_threads=0 / nr=0 / decimate=0 / interlaced=0 / bluray_compat=0 / constrained_intra=0 / bframes=16 / b_pyramid=2 / b_adapt=2 / b_bias=0 / direct=3 / weightb=1 / open_gop=0 / weightp=2 / keyint=240 / keyint_min=24 / scenecut=40 / intra_refresh=0 / rc_lookahead=60 / rc=2pass / mbtree=0 / bitrate=11000 / ratetol=1.0 / qcomp=0.60 / qpmin=0 / qpmax=69 / qpstep=4 / cplxblur=20.0 / qblur=0.5 / vbv_maxrate=62500 / vbv_bufsize=78125 / nal_hrd=none / filler=0 / ip_ratio=1.40 / pb_ratio=1.30 / aq=2:1.00
Default                                  : Yes
Forced                                   : No
Color range                              : Limited
Color primaries                          : BT.709
Transfer characteristics                 : BT.709
Matrix coefficients                      : BT.709

Audio
ID                                       : 2
Format                                   : AC-3
Format/Info                              : Audio Coding 3
Commercial name                          : Dolby Digital
Codec ID                                 : A_AC3
Duration                                 : 1 h 26 min
Bit rate mode                            : Constant
Bit rate                                 : 384 kb/s
Channel(s)                               : 2 channels
Channel layout                           : L R
Sampling rate                            : 48.0 kHz
Frame rate                               : 31.250 FPS (1536 SPF)
Compression mode                         : Lossy
Stream size                              : 239 MiB (3%)
Title                                    : DD 2.0
Language                                 : English
Service kind                             : Complete Main
Default                                  : Yes
Forced                                   : No

Text
ID                                       : 3
Format                                   : UTF-8
Codec ID                                 : S_TEXT/UTF8
Codec ID/Info                            : UTF-8 Plain Text
Duration                                 : 1 h 20 min
Bit rate                                 : 79 b/s
Count of elements                        : 1533
Stream size                              : 47.1 KiB (0%)
Title                                    : English
Language                                 : English
Default                                  : Yes
Forced                                   : No

Menu
00:00:08.000                             : Athena
00:08:43.624                             : Cool Idea
00:17:40.112                             : The Book
00:24:37.456                             : Lost
00:31:20.900                             : Blow My Mind
00:37:20.842                             : Enlightenment
00:45:25.200                             : I Need Help
00:54:07.346                             : I\'m Anonymous
01:01:30.574                             : Crisis Mode
01:11:52.913                             : The Title
01:16:50.550                             : Braingasm
01:22:41.509                             : End Credits

[/url]

[/url]

[/url]



                                                                                                                                                                                                        
                                                                                                                                                                                                                                                                                                                                                                                                                                                                                                                                                                                                                                                                                                                                                                                                                                                        
0581dc102466f2ae983204a625d0a53e.zip (35.29 KB, 下载次数: 0)

回复

使用道具 举报

小黑屋|百度云资源分享吧 ( 京ICP备15014721号-2 )

本网站所有资源来自网络,如无意中侵犯了您的权益,请发邮件至 [email protected],立即清除相关链接

GMT+8, 2021-4-19 02:10 , Processed in 0.108665 second(s), 23 queries .

Powered by Discuz! X3.2

© 2001-2013 Comsenz Inc.

快速回复 返回顶部 返回列表