百度云资源论坛

 找回密码
 立即注册

无敌战神 Ator.the.Fighting.Eagle.1982.DUBBED.1080p.BluRay.x264.DD2.0-HANDJOB 7.4 ...

[复制链接]
百度云资源 发表于 2021-4-8 01:03:31 | 显示全部楼层 |阅读模式
-->
帖子完整标题:无敌战神 Ator.the.Fighting.Eagle.1982.DUBBED.1080p.BluRay.x264.DD2.0-HANDJOB 7.40GB



[/url]

◎译  名 无敌战神/Ator l'invincibile
◎片  名 Ator the Fighting Eagle
◎年  代 1982
◎产  地 意大利
◎类  别 奇幻 / 冒险
◎语  言 意大利语
◎上映日期 1982
◎IMDb评分  3.2/10 from 2211 users
◎IMDb链接  
◎豆瓣评分 /10 from 0 users
◎豆瓣链接 
◎片  长 USA: 98 分钟
◎导  演 乔·达马托 Joe D'Amato
◎编  剧 乔·达马托 Joe D'Amato / 米歇尔·索伊 Michele Soavi
◎主  演 迈尔斯·欧科飞 Miles O'Keeffe
       萨布丽娜·瑟亚尼 Sabrina Siani
       劳拉·贾姆瑟 Laura Gemser
       埃德蒙·珀道姆 Edmund Purdom
       内洛·帕扎菲尼 Nello Pazzafini

◎标  签 意大利 | 战神 | 意大利电影 | 奇幻 | 动作 | 冒险 | fantasy | Miles

◎简  介

  托伦的儿子阿托尔通过学习父亲以文字遗留下的智慧,不断成长。心中的仇恨随着能力的增长
  
  与日俱增。终有一天,他回到了背叛他们的部族,这时的他已充满智慧,并不伸张,只为先救
  
  出自己的妹妹,并获得能杀死巨型蜘蛛的神剑和恶魔达卡的邪力。
  
  他与巨型蜘蛛战斗,他隐身在魔物的影子里,激烈的厮杀唤醒了沉睡的死亡战士,更可
  
  拍的是,随着而来苏醒的是历史上最可怕的女巫......
Video
ID                                       : 1
Format                                   : AVC
Format/Info                              : Advanced Video Codec
Format profile                           :
Format settings                          : CABAC / 4 Ref Frames
Format settings, CABAC                   : Yes
Format settings, Reference frames        : 4 frames
Codec ID                                 : V_MPEG4/ISO/AVC
Duration                                 : 1 h 31 min
Bit rate                                 : 11.1 Mb/s
Width                                    : 1 920 pixels
Height                                   : 1 080 pixels
Display aspect ratio                     : 16:9
Frame rate mode                          : Constant
Frame rate                               : 24.000 FPS
Color space                              : YUV
Chroma subsampling                       : 4:2:0
Bit depth                                : 8 bits
Scan type                                : Progressive
Bits/(Pixel*Frame)                       : 0.224
Stream size                              : 7.15 GiB (97%)
Writing library                          : x264 core 155 r2917 0a84d98
Encoding settings                        : cabac=1 / ref=4 / deblock=1:-3:-3 / analyse=0x3:0x133 / me=umh / subme=10 / psy=1 / psy_rd=1.00:0.00 / mixed_ref=1 / me_range=32 / chroma_me=1 / trellis=2 / 8x8dct=1 / cqm=0 / deadzone=21,11 / fast_pskip=0 / chroma_qp_offset=-2 / threads=34 / lookahead_threads=8 / sliced_threads=0 / nr=0 / decimate=0 / interlaced=0 / bluray_compat=0 / constrained_intra=0 / bframes=16 / b_pyramid=2 / b_adapt=2 / b_bias=0 / direct=3 / weightb=1 / open_gop=0 / weightp=1 / keyint=240 / keyint_min=24 / scenecut=40 / intra_refresh=0 / rc_lookahead=60 / rc=crf / mbtree=0 / crf=18.0 / qcomp=0.60 / qpmin=0 / qpmax=69 / qpstep=4 / vbv_maxrate=62500 / vbv_bufsize=78125 / crf_max=0.0 / nal_hrd=none / filler=0 / ip_ratio=1.40 / pb_ratio=1.30 / aq=1:0.70
Default                                  : Yes
Forced                                   : No
Color range                              : Limited
Color primaries                          : BT.709
Transfer characteristics                 : BT.709
Matrix coefficients                      : BT.709

Audio
ID                                       : 2
Format                                   : AC-3
Format/Info                              : Audio Coding 3
Commercial name                          : Dolby Digital
Codec ID                                 : A_AC3
Duration                                 : 1 h 31 min
Bit rate mode                            : Constant
Bit rate                                 : 384 kb/s
Channel(s)                               : 2 channels
Channel layout                           : L R
Sampling rate                            : 48.0 kHz
Frame rate                               : 31.250 FPS (1536 SPF)
Compression mode                         : Lossy
Stream size                              : 253 MiB (3%)
Language                                 : English
Service kind                             : Complete Main
Default                                  : Yes
Forced                                   : No

Text #1
ID                                       : 3
Format                                   : UTF-8
Codec ID                                 : S_TEXT/UTF8
Codec ID/Info                            : UTF-8 Plain Text
Duration                                 : 1 h 26 min
Bit rate                                 : 25 b/s
Count of elements                        : 592
Stream size                              : 16.1 KiB (0%)
Language                                 : English
Default                                  : No
Forced                                   : No

Text #2
ID                                       : 4
Format                                   : UTF-8
Codec ID                                 : S_TEXT/UTF8
Codec ID/Info                            : UTF-8 Plain Text
Duration                                 : 1 h 26 min
Bit rate                                 : 25 b/s
Count of elements                        : 603
Stream size                              : 16.4 KiB (0%)
Title                                    : SDH
Language                                 : English
Default                                  : No
Forced                                   : No

Menu
00:00:00.000                             : :Chapter 1
00:08:42.000                             : :Chapter 2
00:16:39.750                             : :Chapter 3
00:22:14.250                             : :Chapter 4
00:29:39.750                             : :Chapter 5
00:38:16.500                             : :Chapter 6
00:46:54.750                             : :Chapter 7
00:55:52.500                             : :Chapter 8
01:04:03.000                             : :Chapter 9
01:11:32.250                             : :Chapter 10
01:21:38.250                             : :Chapter 11
01:27:24.000                             : :Chapter 12

[/url]

[/url]



                                                                                                                                                                                                        
                                                                                                                                                                                                                                                                                                                                                                                                                                                                                                                                                                                                                                                                                                                                                                                                                                                        
3ce95e7449d4a09d3ee2946492acf517.zip (37.7 KB, 下载次数: 0)

回复

使用道具 举报

小黑屋|百度云资源分享吧 ( 京ICP备15014721号-2 )

本网站所有资源来自网络,如无意中侵犯了您的权益,请发邮件至 [email protected],立即清除相关链接

GMT+8, 2021-4-19 02:18 , Processed in 0.102424 second(s), 23 queries .

Powered by Discuz! X3.2

© 2001-2013 Comsenz Inc.

快速回复 返回顶部 返回列表