百度云资源论坛

 找回密码
 立即注册

摊牌 Shade.2003.720p.BluRay.x264-MiMiC 5.57GB

[复制链接]
-->
帖子完整标题:摊牌 Shade.2003.720p.BluRay.x264-MiMiC 5.57GB



[/url]

◎译  名 摊牌
◎片  名 Shade
◎年  代 2003
◎产  地 美国
◎类  别 惊悚 / 犯罪
◎语  言 英语
◎上映日期 2003-05-18
◎IMDb评分  6.3/10 from 12165 users
◎IMDb链接  
◎豆瓣评分 6.7/10 from 223 users
◎豆瓣链接 
◎片  长 95 分钟
◎主  演 西尔维斯特·史泰龙 Sylvester Stallone
       梅兰尼·格里菲斯 Melanie Griffith
       加布里埃尔·伯恩 Gabriel Byrne
       Joe Nicolo
       Carl Mazzocone Sr.
       塔比瑟·史蒂文斯 Tabitha Stevens
       罗德尼·罗兰德 Rodney Rowland
       大卫·普鲁德汉姆 David Purdham
       Heath Centazzo
       埃里卡·娜娜 Erika Nann
       B-Real
       Greg Suddeth
       罗杰·格午埃文·史密斯 Roger Guenveur Smith
       Adam Grace
       李心敏 Xinmin Li
       Sean Stanek
       Mick Rossi
       Veronica Grey
       Joel Manning
       Tawny Roberts
       Jennifer Burgess-Keene
       杰森·切尔博 Jason Cerbone
       托尼·伯顿 Tony Burton
       Bret Anthony
       小马克·布恩 Mark Boone Junior
       Carl Mazzocone
       弗兰克·梅德拉诺 Frank Medrano
       格伦·普拉默 Glenn Plummer
       博·霍普金斯 Bo Hopkins
       哈尔·霍尔布鲁克 Hal Holbrook
       杰米·福克斯 Jamie Foxx
       斯图尔特·汤森德 Stuart Townsend
       查尔斯·罗基特 Charles Rocket
       Ted Hartley
       迪娜·梅瑞尔 Dina Merrill
       坦迪·牛顿 Thandiwe Newton
       帕特里克·波查 Patrick Bauchau
       迈克尔·多恩 Michael Dorn
       泰·爱兰德 Trae Ireland

◎标  签 美国 | 悬疑 | 赌博 | 犯罪 | 美国电影 | 剧情 | 2003 | 电影

◎简  介

  出没在洛杉矶酒吧,夜总会的扑克老千世界里,三名行骗高手各怀鬼胎准备大显身手,当他们将高额赌注压宝在下一头肥羊“THE DEAN”身上时,不料却卷入连串黑道复仇杀机中难以脱身,到底谁在骗谁?水能全身而退?不到最后一秒无法预知真相。
Video
ID                                       : 1
Format                                   : AVC
Format/Info                              : Advanced Video Codec
Format profile                           :
Format settings                          : CABAC / 8 Ref Frames
Format settings, CABAC                   : Yes
Format settings, Reference frames        : 8 frames
Codec ID                                 : V_MPEG4/ISO/AVC
Duration                                 : 1 h 42 min
Bit rate                                 : 7 163 kb/s
Width                                    : 1 280 pixels
Height                                   : 544 pixels
Display aspect ratio                     : 2.35:1
Frame rate mode                          : Constant
Frame rate                               : 23.976 (24000/1001/189150) FPS
Color space                              : YUV
Chroma subsampling                       : 4:2:0
Bit depth                                : 8 bits
Scan type                                : Progressive
Bits/(Pixel*Frame)                       : 0.429
Stream size                              : 5.11 GiB (92%)
Writing library                          : x264 core 161 r3048 b86ae3c
Encoding settings                        : cabac=1 / ref=8 / deblock=1:0:0 / analyse=0x3:0x133 / me=umh / subme=9 / psy=1 / psy_rd=1.00:0.00 / mixed_ref=1 / me_range=16 / chroma_me=1 / trellis=2 / 8x8dct=1 / cqm=0 / deadzone=21,11 / fast_pskip=0 / chroma_qp_offset=-2 / threads=17 / lookahead_threads=1 / sliced_threads=0 / nr=0 / decimate=0 / interlaced=0 / bluray_compat=0 / constrained_intra=0 / bframes=3 / b_pyramid=2 / b_adapt=2 / b_bias=0 / direct=3 / weightb=1 / open_gop=0 / weightp=2 / keyint=240 / keyint_min=23 / scenecut=40 / intra_refresh=0 / rc=crf / mbtree=0 / crf=17.4 / qcomp=0.60 / qpmin=0 / qpmax=69 / qpstep=4 / ip_ratio=1.40 / pb_ratio=1.30 / aq=1:1.00
Default                                  : Yes
Forced                                   : No
Color range                              : Limited
Matrix coefficients                      : BT.709

Audio
ID                                       : 2
Format                                   : AC-3
Format/Info                              : Audio Coding 3
Commercial name                          : Dolby Digital
Codec ID                                 : A_AC3
Duration                                 : 1 h 42 min
Bit rate mode                            : Constant
Bit rate                                 : 640 kb/s
Channel(s)                               : 6 channels
Channel layout                           : L R C LFE Ls Rs
Sampling rate                            : 48.0 kHz
Frame rate                               : 31.250 FPS (1536 SPF)
Compression mode                         : Lossy
Stream size                              : 467 MiB (8%)
Language                                 : English
Service kind                             : Complete Main
Default                                  : Yes
Forced                                   : No

Text #1
ID                                       : 3
Format                                   : PGS
Muxing mode                              : zlib
Codec ID                                 : S_HDMV/PGS
Codec ID/Info                            : Picture based subtitle format used on BDs/HD-DVDs
Duration                                 : 1 h 41 min
Bit rate                                 : 28.8 kb/s
Count of elements                        : 4255
Stream size                              : 21.0 MiB (0%)
Language                                 : English
Default                                  : Yes
Forced                                   : No

Text #2
ID                                       : 4
Format                                   : PGS
Muxing mode                              : zlib
Codec ID                                 : S_HDMV/PGS
Codec ID/Info                            : Picture based subtitle format used on BDs/HD-DVDs
Duration                                 : 1 h 36 min
Bit rate                                 : 24.4 kb/s
Count of elements                        : 2793
Stream size                              : 16.8 MiB (0%)
Language                                 : French
Default                                  : No
Forced                                   : No

Menu
00:00:00.000                             : en:Chapter 01
00:06:45.655                             : en:Chapter 02
00:14:54.977                             : en:Chapter 03
00:21:46.347                             : en:Chapter 04
00:32:07.342                             : en:Chapter 05
00:43:45.832                             : en:Chapter 06
00:51:41.682                             : en:Chapter 07
01:01:59.090                             : en:Chapter 08
01:07:56.573                             : en:Chapter 09
01:20:12.182                             : en:Chapter 10
01:33:19.177                             : en:Chapter 11
01:37:32.722                             : en:Chapter 12

[/url]



                                                                                                                                                                                                        
                                                                                                                                                                                                                                                                                                                                                                                                                                                                                                                                                                                                                                                                                                                                                                                                                                                        
5d20e64cf8ba0d213fd6aef51aa04a5e.zip (28.51 KB, 下载次数: 0)

回复

使用道具 举报

小黑屋|百度云资源分享吧 ( 京ICP备15014721号-2 )

本网站所有资源来自网络,如无意中侵犯了您的权益,请发邮件至 [email protected],立即清除相关链接

GMT+8, 2021-4-13 03:34 , Processed in 0.098248 second(s), 23 queries .

Powered by Discuz! X3.2

© 2001-2013 Comsenz Inc.

快速回复 返回顶部 返回列表