百度云资源论坛

 找回密码
 立即注册

撒旦之鸦 The.Blood.on.Satans.Claw.1971.REMASTERED.1080p.BluRay.x264-SURCODE 7.30 ...

[复制链接]
-->
帖子完整标题:撒旦之鸦 The.Blood.on.Satans.Claw.1971.REMASTERED.1080p.BluRay.x264-SURCODE 7.30GB



[/url]

◎译  名 撒旦之鸦/Satan's Skin/捉妖降魔/鬼爪
◎片  名 Blood on Satan's Claw
◎年  代 1971
◎产  地 英国
◎类  别 惊悚 / 恐怖
◎语  言 英语
◎上映日期 1971-04-14
◎IMDb评分  6.4/10 from 5038 users
◎IMDb链接  
◎豆瓣评分 5.8/10 from 91 users
◎豆瓣链接 
◎片  长 93 分钟
◎导  演 皮尔斯·哈格德 Piers Haggard
◎编  剧 皮尔斯·哈格德 Piers Haggard / 罗伯特·温恩-西蒙斯 Robert Wynne-Simmons
◎主  演 帕特里克·怀马克 Patrick Wymark
       琳达·海登 Linda Hayden

◎标  签 英国 | 恐怖 | 宗教 | 惊悚 | 英国电影 | 情色 | 1970s | 美得恐怖

◎简  介

  农夫Ralph Gower耕田时发现一具带有皮毛的尸体,他认为这是传说中魔鬼的躯体,并把这事告诉了从伦敦来的大法官,大法官认为这只是无稽之谈。当天,Gower主人外甥的女友晚上受到惊吓中了邪,事情使村民们笼罩在恐惧之下,真的是传说中的魔鬼复活了吗?最可怕的是,女孩Angel Blake扮演起原始巫术的巫师,带领青年们走向一条歧路——对魔鬼顶礼膜拜。后果是,村里更多的人被杀。事情完全向着一个疯狂的方向发展……
Video
ID                                       : 1
Format                                   : AVC
Format/Info                              : Advanced Video Codec
Format profile                           :
Format settings                          : CABAC / 4 Ref Frames
Format settings, CABAC                   : Yes
Format settings, Reference frames        : 4 frames
Codec ID                                 : V_MPEG4/ISO/AVC
Duration                                 : 1 h 36 min
Bit rate                                 : 10.3 Mb/s
Width                                    : 1 920 pixels
Height                                   : 1 040 pixels
Display aspect ratio                     : 1.85:1
Frame rate mode                          : Constant
Frame rate                               : 23.976 (24000/1001/189150) FPS
Color space                              : YUV
Chroma subsampling                       : 4:2:0
Bit depth                                : 8 bits
Scan type                                : Progressive
Bits/(Pixel*Frame)                       : 0.216
Stream size                              : 6.96 GiB (95%)
Writing library                          : x264 core 161 r3048 b86ae3c
Encoding settings                        : cabac=1 / ref=4 / deblock=1:-3:-3 / analyse=0x3:0x133 / me=umh / subme=9 / psy=1 / psy_rd=1.00:0.00 / mixed_ref=1 / me_range=16 / chroma_me=1 / trellis=2 / 8x8dct=1 / cqm=0 / deadzone=21,11 / fast_pskip=0 / chroma_qp_offset=-2 / threads=32 / lookahead_threads=2 / sliced_threads=0 / nr=0 / decimate=1 / interlaced=0 / bluray_compat=0 / constrained_intra=0 / bframes=3 / b_pyramid=2 / b_adapt=2 / b_bias=0 / direct=3 / weightb=1 / open_gop=0 / weightp=2 / keyint=250 / keyint_min=23 / scenecut=40 / intra_refresh=0 / rc_lookahead=60 / rc=crf / mbtree=1 / crf=22.1 / qcomp=0.60 / qpmin=0 / qpmax=69 / qpstep=4 / ip_ratio=1.40 / aq=1:1.00
Language                                 : English
Default                                  : Yes
Forced                                   : No

Audio #1
ID                                       : 2
Format                                   : FLAC
Format/Info                              : Free Lossless Audio Codec
Codec ID                                 : A_FLAC
Duration                                 : 1 h 36 min
Bit rate mode                            : Variable
Bit rate                                 : 264 kb/s
Channel(s)                               : 2 channels
Channel layout                           : L R
Sampling rate                            : 48.0 kHz
Frame rate                               : 11.719 FPS (4096 SPF)
Bit depth                                : 16 bits
Compression mode                         : Lossless
Stream size                              : 182 MiB (2%)
Writing library                          : libFLAC 1.3.2 (UTC 2017-01-01)
Language                                 : English
Default                                  : Yes
Forced                                   : No

Audio #2
ID                                       : 3
Format                                   : AAC LC
Format/Info                              : Advanced Audio Codec Low Complexity
Codec ID                                 : A_AAC-2
Duration                                 : 1 h 36 min
Bit rate                                 : 89.5 kb/s
Channel(s)                               : 2 channels
Channel layout                           : L R
Sampling rate                            : 48.0 kHz
Frame rate                               : 46.875 FPS (1024 SPF)
Compression mode                         : Lossy
Delay relative to video                  : 9 ms
Stream size                              : 61.8 MiB (1%)
Title                                    : commentary
Language                                 : English
Default                                  : No
Forced                                   : No

Audio #3
ID                                       : 4
Format                                   : AAC LC
Format/Info                              : Advanced Audio Codec Low Complexity
Codec ID                                 : A_AAC-2
Duration                                 : 1 h 36 min
Bit rate                                 : 132 kb/s
Channel(s)                               : 2 channels
Channel layout                           : L R
Sampling rate                            : 48.0 kHz
Frame rate                               : 46.875 FPS (1024 SPF)
Compression mode                         : Lossy
Delay relative to video                  : 9 ms
Stream size                              : 89.9 MiB (1%)
Title                                    : commentary
Language                                 : English
Default                                  : No
Forced                                   : No

Text #1
ID                                       : 5
Format                                   : PGS
Muxing mode                              : zlib
Codec ID                                 : S_HDMV/PGS
Codec ID/Info                            : Picture based subtitle format used on BDs/HD-DVDs
Duration                                 : 1 h 32 min
Bit rate                                 : 15.0 kb/s
Count of elements                        : 1179
Stream size                              : 9.95 MiB (0%)
Language                                 : English
Default                                  : No
Forced                                   : No

Text #2
ID                                       : 6
Format                                   : PGS
Muxing mode                              : zlib
Codec ID                                 : S_HDMV/PGS
Codec ID/Info                            : Picture based subtitle format used on BDs/HD-DVDs
Duration                                 : 1 h 32 min
Bit rate                                 : 16.8 kb/s
Count of elements                        : 1196
Stream size                              : 11.1 MiB (0%)
Language                                 : German
Default                                  : No
Forced                                   : No

Menu
00:00:00.000                             : en:Chapter 01
00:07:04.424                             : en:Chapter 02
00:16:15.975                             : en:Chapter 03
00:23:40.419                             : en:Chapter 04
00:33:01.980                             : en:Chapter 05
00:40:16.414                             : en:Chapter 06
00:46:28.786                             : en:Chapter 07
00:58:34.511                             : en:Chapter 08
01:05:14.911                             : en:Chapter 09
01:12:27.343                             : en:Chapter 10
01:18:53.729                             : en:Chapter 11
01:32:11.526                             : en:Chapter 12

[/url]



                                                                                                                                                                                                        
                                                                                                                                                                                                                                                                                                                                                                                                                                                                                                                                                                                                                                                                                                                                                                                                                                                        
b6ff95a22a1adb523a6ef6cf25503015.zip (37.29 KB, 下载次数: 0)

回复

使用道具 举报

小黑屋|百度云资源分享吧 ( 京ICP备15014721号-2 )

本网站所有资源来自网络,如无意中侵犯了您的权益,请发邮件至 [email protected],立即清除相关链接

GMT+8, 2021-4-13 02:25 , Processed in 0.126503 second(s), 23 queries .

Powered by Discuz! X3.2

© 2001-2013 Comsenz Inc.

快速回复 返回顶部 返回列表